.
Авторизация | Регистрация
Хочешь лучшие торренты? Добавь свой email!
Добавить

Торрент скачать бесплатно

» » System Of A Down - Toxicity (2001) Japanese Edition [FLAC|Lossless|image + .cue] <Alternative Nu Metal> торрент скачать бесплатно


    System Of A Down - Toxicity (2001) Japanese Edition [FLAC|Lossless|image + .cue] <Alternative Nu Metal> торрент скачать бесплатно

    Опубликовал: Админ | Дата: 4-04-2018, 05:00 | .torrent скачали: 0

    System Of A Down - Toxicity (2001) Japanese Edition [FLAC|Lossless|image + .cue] &ltAlternative Nu Metal>Жанр: Alternative Nu Metal
    Издание: Sony Records Int\'l ‎– SICP 44
    Продолжительность: 00: 46: 14
    Источник (релизер): Hellixxx
    Кодек: FLAC
    Битрейт: Lossless
    Тип рипа: image + .cue
    Наличие сканов: Да, полные


    Треклист

    01. Prison Song (3: 21)
    02. Needles (3: 14)
    03. Deer Dance (2: 55)
    04. Jet Pilot (2: 06)
    05. X (1: 59)
    06. Chop Suey! (3: 30)
    07. Bounce (1: 54)
    08. Johnny (2: 08)*
    09. Forest (4: 00)
    10. Atwa (2: 56)
    11. Science (2: 43)
    12. Shimmy (1: 51)
    13. Toxicity (3: 39)
    14. Psycho (3: 46)
    15. Aerials (6: 11)
    * BONUS TRACK FOR JAPAN ONLY
    Код: выделить все
    Exact Audio Copy V1.0 beta 3 from 29. August 2011
    EAC extraction logfile from 11. October 2013, 20:20
    System of a Down/Toxicity
    Used drive : PIONEER DVD-RW DVR-111D Adapter: 4 ID: 1
    Read mode : Secure
    Utilize accurate stream : Yes
    Defeat audio cache : Yes
    Make use of C2 pointers : No
    Read offset correction : 48
    Overread into Lead-In and Lead-Out : No
    Fill up missing offset samples with silence : Yes
    Delete leading and trailing silent blocks : No
    Null samples used in CRC calculations : Yes
    Used interface : Native Win32 interface for Win NT 2000
    Used output format : User Defined Encoder
    Selected bitrate : 128 kBit/s
    Quality : High
    Add ID3 tag : No
    Command line compressor : F:Program FilesFLACflac.exe
    Additional command line options : -V -8 -T Date=%year% -T Genre=%genre% %source%
    TOC of the extracted CD
    Track | Start | Length | Start sector | End sector
    ---------------------------------------------------------
    1 | 0:00.00 | 3:21.37 | 0 | 15111
    2 | 3:21.37 | 3:13.55 | 15112 | 29641
    3 | 6:35.17 | 2:55.08 | 29642 | 42774
    4 | 9:30.25 | 2:06.35 | 42775 | 52259
    5 | 11:36.60 | 1:58.42 | 52260 | 61151
    6 | 13:35.27 | 3:30.18 | 61152 | 76919
    7 | 17:05.45 | 1:54.17 | 76920 | 85486
    8 | 18:59.62 | 2:07.48 | 85487 | 95059
    9 | 21:07.35 | 4:00.10 | 95060 | 113069
    10 | 25:07.45 | 2:56.15 | 113070 | 126284
    11 | 28:03.60 | 2:43.05 | 126285 | 138514
    12 | 30:46.65 | 1:51.05 | 138515 | 146844
    13 | 32:37.70 | 3:38.70 | 146845 | 163264
    14 | 36:16.65 | 3:45.67 | 163265 | 180206
    15 | 40:02.57 | 6:11.05 | 180207 | 208036
    Range status and errors
    Selected range
    Filename D:EAC - Hellixxx ripSystem Of A Down - 2001 - Toxicity (SICP-44).wav
    Peak level 98.9 %
    Extraction speed 6.9 X
    Range quality 100.0 %
    Test CRC D649A33D
    Copy CRC D649A33D
    Copy OK
    No errors occurred
    AccurateRip summary
    Track 1 accurately ripped (confidence 2) [FDEA668C] (AR v1)
    Track 2 accurately ripped (confidence 2) [338B1000] (AR v1)
    Track 3 accurately ripped (confidence 2) [4DA637CB] (AR v1)
    Track 4 accurately ripped (confidence 2) [6CAC25EC] (AR v1)
    Track 5 accurately ripped (confidence 2) [0DCD392C] (AR v1)
    Track 6 accurately ripped (confidence 2) [FC14021E] (AR v1)
    Track 7 accurately ripped (confidence 2) [2202C04A] (AR v1)
    Track 8 accurately ripped (confidence 2) [FC9388AA] (AR v1)
    Track 9 accurately ripped (confidence 2) [9A1C67BA] (AR v1)
    Track 10 accurately ripped (confidence 2) [98E643C0] (AR v1)
    Track 11 accurately ripped (confidence 2) [5F5E0DA3] (AR v1)
    Track 12 accurately ripped (confidence 2) [E7A50347] (AR v1)
    Track 13 accurately ripped (confidence 2) [0CB93C2E] (AR v1)
    Track 14 accurately ripped (confidence 2) [0F94AB6B] (AR v1)
    Track 15 accurately ripped (confidence 2) [F4514F0B] (AR v1)
    All tracks accurately ripped
    End of status report
    ==== Log checksum 79CCAFFE745B3FF6006C2327C6922037607FCAB8997AA472702684450587F44E ====
    Код: выделить все
    REM GENRE Metal
    REM DATE 2001
    REM DISCID DE0AD50F
    REM COMMENT ExactAudioCopy v1.0b3
    PERFORMER System of a Down
    TITLE Toxicity
    FILE System Of A Down - 2001 - Toxicity (SICP-44).flac WAVE
    TRACK 01 AUDIO
    TITLE Prison Song
    PERFORMER System of a Down
    INDEX 01 00:00:00
    TRACK 02 AUDIO
    TITLE Needles
    PERFORMER System of a Down
    INDEX 01 03:21:37
    TRACK 03 AUDIO
    TITLE Deer Dance
    PERFORMER System of a Down
    INDEX 01 06:35:17
    TRACK 04 AUDIO
    TITLE Jet Pilot
    PERFORMER System of a Down
    INDEX 01 09:30:25
    TRACK 05 AUDIO
    TITLE X
    PERFORMER System of a Down
    INDEX 01 11:36:60
    TRACK 06 AUDIO
    TITLE Chop Suey!
    PERFORMER System of a Down
    INDEX 01 13:35:27
    TRACK 07 AUDIO
    TITLE Bounce
    PERFORMER System of a Down
    INDEX 01 17:05:45
    TRACK 08 AUDIO
    TITLE Johnny
    PERFORMER System of a Down
    INDEX 01 18:59:62
    TRACK 09 AUDIO
    TITLE Forest
    PERFORMER System of a Down
    INDEX 01 21:07:35
    TRACK 10 AUDIO
    TITLE Atwa
    PERFORMER System of a Down
    INDEX 01 25:07:45
    TRACK 11 AUDIO
    TITLE Science
    PERFORMER System of a Down
    INDEX 01 28:03:60
    TRACK 12 AUDIO
    TITLE Shimmy
    PERFORMER System of a Down
    INDEX 01 30:46:65
    TRACK 13 AUDIO
    TITLE Toxicity
    PERFORMER System of a Down
    INDEX 01 32:37:70
    TRACK 14 AUDIO
    TITLE Psycho
    PERFORMER System of a Down
    INDEX 01 36:16:65
    TRACK 15 AUDIO
    TITLE Aerials
    PERFORMER System of a Down
    INDEX 01 40:02:57
    Код: выделить все
    -----------------------
    DON\'T MODIFY THIS FILE
    -----------------------
    PERFORMER: auCDtect Task Manager, ver. 1.6.0 RC1 build 1.6.0.1
    Copyright (c) 2008-2010 y-soft. All rights reserved
    http://y-soft.org
    ANALYZER: auCDtect: CD records authenticity detector, version 0.8.2
    Copyright (c) 2004 Oleg Berngardt. All rights reserved.
    Copyright (c) 2004 Alexander Djourik. All rights reserved.
    FILE: System Of A Down - 2001 - Toxicity (SICP-44).flac
    Size: 353677895 Hash: 29BD45BB47EC664253BCE96D2BF0EE68 Accuracy: -m0
    Conclusion: CDDA 100%
    Signature: 65316BACE108313233E4FC18448713BDC865610A


    System Of A Down - Toxicity (2001) Japanese Edition [FLAC|Lossless|image + .cue] <Alternative Nu Metal>
    Рейтинг →
     (голосов: 1, оценка 5/5, голосовать можно 1 раз )

    Другие торренты по теме:

  • System of a Down - Live in Armenia (2015) WEBRip[H.264 / 1080р-LQ] скачать через торрент бесплатно
  • Sign System - Burning Down (1985) LP [MP3|320 Kbps] <Electronic, Synth-pop, Italo-Disco, Europop>
  • System Of A Down - Hypnotize (2005) Japanese Edition [FLAC|Lossless|image + .cue] <Alternative Nu Metal>
  • System Of A Down - Mezmerize (2005) Japanese Edition [FLAC|Lossless|image + .cue] <Alternative Nu Metal>


    • Комментарии (0):

      Информация

      Информация

        Посетители, находящиеся в группе Гости, не могут оставлять комментарии в данной новости.

        ↓ Меню




        ↓ Опрос

        Вы добавили сайт в закладки?
        Да
        Нет


        Top 10 за месяц (Музыка)