.
Авторизация | Регистрация
Хочешь лучшие торренты? Добавь свой email!
Добавить

Торрент скачать бесплатно

» » System Of A Down - Mezmerize (2005) Japanese Edition [FLAC|Lossless|image + .cue] <Alternative Nu Metal> торрент скачать бесплатно


    System Of A Down - Mezmerize (2005) Japanese Edition [FLAC|Lossless|image + .cue] <Alternative Nu Metal> торрент скачать бесплатно

    Опубликовал: Админ | Дата: 4-04-2018, 05:00 | .torrent скачали: 0

    System Of A Down - Mezmerize (2005) Japanese Edition [FLAC|Lossless|image + .cue] &ltAlternative Nu Metal>Жанр: Alternative Nu Metal
    Издание: Sony Records Int\'l - SICP 682
    Продолжительность: 00: 36: 12
    Источник (релизер): Hellixxx
    Кодек: FLAC
    Битрейт: Lossless
    Тип рипа: image + .cue
    Наличие сканов: Да, полные


    Треклист

    01. Soldier Side - Intro (1: 04)
    02. B.Y.O.B. (4: 15)
    03. Revenga (3: 48)
    04. Cigaro (2: 12)
    05. Radio/Video (4: 09)
    06. This Cocaine Makes Me Feel Like I\'m On This Song (2: 08)
    07. Violent Pornography (3: 31)
    08. Question! (3: 21)
    09. Sad Statue (3: 26)
    10. Old School Hollywood (2: 57)
    11. Lost In Hollywood (5: 21)
    Код: выделить все
    Exact Audio Copy V1.0 beta 3 from 29. August 2011
    Отчёт EAC об извлечении, выполненном 14. апреля 2013, 11:42
    System Of A Down/Mezmerize
    Дисковод: PIONEER DVD-RW DVR-111D Adapter: 4 ID: 1
    Режим чтения : Достоверность
    Использование точного потока : Да
    Отключение кэша аудио : Да
    Использование указателей C2 : Нет
    Коррекция смещения при чтении : 48
    Способность читать области Lead-in и Lead-out : Нет
    Заполнение пропущенных сэмплов тишиной : Да
    Удаление блоков с тишиной в начале и конце : Нет
    При вычислениях CRC использовались нулевые сэмплы : Да
    Интерфейс : Встроенный Win32-интерфейс для Win NT/2000
    Выходной формат : Пользовательский кодировщик
    Выбранный битрейт : 128 kBit/s
    Качество : Высокий
    Добавление ID3-тега : Нет
    Утилита сжатия : F:Program FilesFLACflac.exe
    Дополнительные параметры : -V -8 -T Date=%year% -T Genre=%genre% %source%
    TOC извлечённого CD
    Трек | Старт | Длительность | Начальный сектор | Конечный сектор
    ---------------------------------------------------------------------
    1 | 0:00.00 | 1:03.38 | 0 | 4762
    2 | 1:03.38 | 4:15.37 | 4763 | 23924
    3 | 5:19.00 | 3:48.02 | 23925 | 41026
    4 | 9:07.02 | 2:11.58 | 41027 | 50909
    5 | 11:18.60 | 4:09.10 | 50910 | 69594
    6 | 15:27.70 | 2:08.18 | 69595 | 79212
    7 | 17:36.13 | 3:31.35 | 79213 | 95072
    8 | 21:07.48 | 3:20.45 | 95073 | 110117
    9 | 24:28.18 | 3:25.52 | 110118 | 125544
    10 | 27:53.70 | 2:56.63 | 125545 | 138807
    11 | 30:50.58 | 5:20.64 | 138808 | 162871
    Характеристики диапазона извлечения и сообщения об ошибках
    Выбранный диапазон
    Имя файла D:EAC - extractSystem Of A Down - 2005 - Mezmerize (SICP-682).wav
    Пиковый уровень 98.8 %
    Скорость извлечения 6.5 X
    Качество диапазона 99.9 %
    CRC теста 53B76A5C
    CRC копии 53B76A5C
    Копирование... OK
    Ошибок не произошло
    AccurateRip: сводка
    Трек 1 : извлечено точно (доверие 3) [9CE488EC] (AR v1)
    Трек 2 : извлечено точно (доверие 3) [90F81F33] (AR v1)
    Трек 3 : извлечено точно (доверие 3) [31B83FB9] (AR v1)
    Трек 4 : извлечено точно (доверие 3) [5BAF2E17] (AR v1)
    Трек 5 : извлечено точно (доверие 3) [ED8618C8] (AR v1)
    Трек 6 : извлечено точно (доверие 3) [417B409C] (AR v1)
    Трек 7 : извлечено точно (доверие 3) [26FD0E32] (AR v1)
    Трек 8 : извлечено точно (доверие 3) [7B7C8E71] (AR v1)
    Трек 9 : извлечено точно (доверие 3) [035331E3] (AR v1)
    Трек 10 : извлечено точно (доверие 3) [5DAAA237] (AR v1)
    Трек 11 : извлечено точно (доверие 3) [A07D0C3D] (AR v1)
    Все треки извлечены точно
    Конец отчёта
    ==== Контрольная сумма отчёта 076B05BBCA73B50F4C06BF7ED0F7B4A5D9014BA348F1FB569699646D8CD7E2E2 ====
    Код: выделить все
    REM GENRE Heavy Metal
    REM DATE 2005
    REM DISCID 96087B0B
    REM COMMENT ExactAudioCopy v1.0b3
    PERFORMER System Of A Down
    TITLE Mezmerize
    FILE System Of A Down - 2005 - Mezmerize (SICP-682).flac WAVE
    TRACK 01 AUDIO
    TITLE Soldier Side - Intro
    PERFORMER System Of A Down
    INDEX 01 00:00:00
    TRACK 02 AUDIO
    TITLE B.Y.O.B.
    PERFORMER System Of A Down
    INDEX 01 01:03:38
    TRACK 03 AUDIO
    TITLE Revenga
    PERFORMER System Of A Down
    INDEX 01 05:19:00
    TRACK 04 AUDIO
    TITLE Cigaro
    PERFORMER System Of A Down
    INDEX 01 09:07:02
    TRACK 05 AUDIO
    TITLE Radio/Video
    PERFORMER System Of A Down
    INDEX 01 11:18:60
    TRACK 06 AUDIO
    TITLE This Cocaine Makes Me Feel Like I\'m On This Song
    PERFORMER System Of A Down
    INDEX 01 15:27:70
    TRACK 07 AUDIO
    TITLE Violent Pornography
    PERFORMER System Of A Down
    INDEX 01 17:36:13
    TRACK 08 AUDIO
    TITLE Question!
    PERFORMER System Of A Down
    INDEX 01 21:07:48
    TRACK 09 AUDIO
    TITLE Sad Statue
    PERFORMER System Of A Down
    INDEX 01 24:28:18
    TRACK 10 AUDIO
    TITLE Old School Hollywood
    PERFORMER System Of A Down
    INDEX 01 27:53:70
    TRACK 11 AUDIO
    TITLE Lost In Hollywood
    PERFORMER System Of A Down
    INDEX 01 30:50:58
    Код: выделить все
    -----------------------
    DON\'T MODIFY THIS FILE
    -----------------------
    PERFORMER: auCDtect Task Manager, ver. 1.6.0 RC1 build 1.6.0.1
    Copyright (c) 2008-2010 y-soft. All rights reserved
    http://y-soft.org
    ANALYZER: auCDtect: CD records authenticity detector, version 0.8.2
    Copyright (c) 2004 Oleg Berngardt. All rights reserved.
    Copyright (c) 2004 Alexander Djourik. All rights reserved.
    FILE: System Of A Down - 2005 - Mezmerize (SICP-682).flac
    Size: 278598530 Hash: 3DE98CB71E1FF613C247557E6DD116EC Accuracy: -m0
    Conclusion: CDDA 100%
    Signature: 8EC6BD0AC54425FB15974955EFCA57DF706A925B


    System Of A Down - Mezmerize (2005) Japanese Edition [FLAC|Lossless|image + .cue] <Alternative Nu Metal>
    Рейтинг →
     (голосов: 1, оценка 3/5, голосовать можно 1 раз )

    Другие торренты по теме:

  • System of a Down - Live in Armenia (2015) WEBRip[H.264 / 1080р-LQ] скачать через торрент бесплатно
  • Sign System - Burning Down (1985) LP [MP3|320 Kbps] <Electronic, Synth-pop, Italo-Disco, Europop>
  • System Of A Down - Hypnotize (2005) Japanese Edition [FLAC|Lossless|image + .cue] <Alternative Nu Metal>
  • System Of A Down - Toxicity (2001) Japanese Edition [FLAC|Lossless|image + .cue] <Alternative Nu Metal>


    • Комментарии (0):

      Информация

      Информация

        Посетители, находящиеся в группе Гости, не могут оставлять комментарии в данной новости.

        ↓ Меню




        ↓ Опрос

        Вы добавили сайт в закладки?
        Да
        Нет


        Top 10 за месяц (Музыка)