.
Авторизация | Регистрация
Хочешь лучшие торренты? Добавь свой email!
Добавить

Торрент скачать бесплатно

» » Henny Vonk - Rerootin (1982) 2016, Solid Records [FLAC|Lossless|tracks + .cue] <Vocal Jazz> торрент скачать бесплатно

    Henny Vonk - Rerootin (1982) 2016, Solid Records [FLAC|Lossless|tracks + .cue] <Vocal Jazz> торрент скачать бесплатно

    Опубликовал: Админ | Дата: 4-04-2018, 05:00 | .torrent скачали: 0

    Henny Vonk - Rerootin (1982) 2016, Solid Records [FLAC|Lossless|tracks + .cue] &ltVocal Jazz>Жанр: Vocal Jazz
    Издание: Solid Records - CDSOL-6438
    Продолжительность: 00: 44: 33
    Кодек: FLAC (tracks+.cue)
    Битрейт: Lossless
    Источник (релизер): ruskaval
    Страна-производитель диска: Japan
    Наличие сканов в содержимом раздачи: да

    Треклист

    01. Frandance 07: 07
    02. Circle 03: 11
    03. Nefertiti 05: 41
    04. Dolphin Dance 04: 10
    05. The Blessing (Jazz Version) 03: 35
    06. A Tribute To Someone 05: 28
    07. Cloud Of Knowledge 04: 05
    08. Pompeii 04: 27
    09. The Blessing (Latin-Jazz Version) 06: 53

    Exact Audio Copy V1.3 from 2. September 2016
    EAC extraction logfile from 27. March 2018, 20: 12
    Henny Vonk/Rerootin\'
    Used drive : ATAPI iHAS122 F Adapter: 1 ID: 2
    Read mode : Secure
    Utilize accurate stream : Yes
    Defeat audio cache : Yes
    Make use of C2 pointers : No
    Read offset correction : 6
    Overread into Lead-In and Lead-Out : No
    Fill up missing offset samples with silence : Yes
    Delete leading and trailing silent blocks : No
    Null samples used in CRC calculations : Yes
    Used interface : Native Win32 interface for Win NT 2000
    Gap handling : Appended to previous track
    Used output format : User Defined Encoder
    Selected bitrate : 1024 kBit/s
    Quality : High
    Add ID3 tag : No
    Command line compressor : C: Program Files (x86)Exact Audio Copy_v1.3Flacflac.exe
    Additional command line options : -8 -V -T ARTIST=%artist% -T TITLE=%title% -T ALBUM=%albumtitle% -T DATE=%year% -T TRACKNUMBER=%tracknr% -T TOTALTRACKS=%numtracks% -T GENRE=%genre% -T ALBUMARTIST=%albumartist% -T ALBUM ARTIST=%albumartist% -T COMMENT=EAC Secure Mode, Test Copy, AccurateRip, FLAC -8 %source%
    TOC of the extracted CD
    Track | Start | Length | Start sector | End sector
    ---------------------------------------------------------
    1 | 0: 00.00 | 7: 06.43 | 0 | 31992
    2 | 7: 06.43 | 3: 10.44 | 31993 | 46286
    3 | 10: 17.12 | 5: 40.18 | 46287 | 71804
    4 | 15: 57.30 | 4: 09.28 | 71805 | 90507
    5 | 20: 06.58 | 3: 34.07 | 90508 | 106564
    6 | 23: 40.65 | 5: 27.27 | 106565 | 131116
    7 | 29: 08.17 | 4: 04.71 | 131117 | 149487
    8 | 33: 13.13 | 4: 26.01 | 149488 | 169438
    9 | 37: 39.14 | 6: 52.71 | 169439 | 200409
    Track 1
    Filename D: _EACHenny Vonk - Rerootin\' (1982) FLAC {Timeless Japan CDSOL-6438 rel 2016}1 - Frandance.wav
    Pre-gap length 0: 00: 02.00
    Peak level 97.8 %
    Extraction speed 4.9 X
    Track quality 99.9 %
    Test CRC 005A8554
    Copy CRC 005A8554
    Track not present in AccurateRip database
    Copy OK
    Track 2
    Filename D: _EACHenny Vonk - Rerootin\' (1982) FLAC {Timeless Japan CDSOL-6438 rel 2016}2 - Circle.wav
    Peak level 83.4 %
    Extraction speed 4.6 X
    Track quality 99.9 %
    Test CRC D3730761
    Copy CRC D3730761
    Track not present in AccurateRip database
    Copy OK
    Track 3
    Filename D: _EACHenny Vonk - Rerootin\' (1982) FLAC {Timeless Japan CDSOL-6438 rel 2016}3 - Nefertiti.wav
    Peak level 89.2 %
    Extraction speed 6.7 X
    Track quality 100.0 %
    Test CRC 1C333B5A
    Copy CRC 1C333B5A
    Track not present in AccurateRip database
    Copy OK
    Track 4
    Filename D: _EACHenny Vonk - Rerootin\' (1982) FLAC {Timeless Japan CDSOL-6438 rel 2016}4 - Dolphin Dance.wav
    Peak level 91.0 %
    Extraction speed 7.1 X
    Track quality 100.0 %
    Test CRC F9DBDAF6
    Copy CRC F9DBDAF6
    Track not present in AccurateRip database
    Copy OK
    Track 5
    Filename D: _EACHenny Vonk - Rerootin\' (1982) FLAC {Timeless Japan CDSOL-6438 rel 2016}5 - The Blessing (Jazz Version).wav
    Peak level 94.6 %
    Extraction speed 5.8 X
    Track quality 99.9 %
    Test CRC 65D13C2B
    Copy CRC 65D13C2B
    Track not present in AccurateRip database
    Copy OK
    Track 6
    Filename D: _EACHenny Vonk - Rerootin\' (1982) FLAC {Timeless Japan CDSOL-6438 rel 2016}6 - A Tribute To Someone.wav
    Peak level 97.8 %
    Extraction speed 6.9 X
    Track quality 99.9 %
    Test CRC 914F47E6
    Copy CRC 914F47E6
    Track not present in AccurateRip database
    Copy OK
    Track 7
    Filename D: _EACHenny Vonk - Rerootin\' (1982) FLAC {Timeless Japan CDSOL-6438 rel 2016}7 - Cloud Of Knowledge.wav
    Peak level 97.8 %
    Extraction speed 8.4 X
    Track quality 100.0 %
    Test CRC 97D6DD48
    Copy CRC 97D6DD48
    Track not present in AccurateRip database
    Copy OK
    Track 8
    Filename D: _EACHenny Vonk - Rerootin\' (1982) FLAC {Timeless Japan CDSOL-6438 rel 2016}8 - Pompeii.wav
    Peak level 96.6 %
    Extraction speed 8.8 X
    Track quality 100.0 %
    Test CRC 0C4D791A
    Copy CRC 0C4D791A
    Track not present in AccurateRip database
    Copy OK
    Track 9
    Filename D: _EACHenny Vonk - Rerootin\' (1982) FLAC {Timeless Japan CDSOL-6438 rel 2016}9 - The Blessing (Latin-Jazz Version).wav
    Peak level 97.8 %
    Extraction speed 9.4 X
    Track quality 100.0 %
    Test CRC 2986DFDC
    Copy CRC 2986DFDC
    Track not present in AccurateRip database
    Copy OK
    None of the tracks are present in the AccurateRip database
    No errors occurred
    End of status report
    ---- CUETools DB Plugin V2.1.6
    CTDB TOCID: ZisYTGqcsAQZBa3pUqu7U4RcjE8- found
    Submit result: ZisYTGqcsAQZBa3pUqu7U4RcjE8- has been confirmed
    Track | CTDB Status
    1 | (1/1) Accurately ripped
    2 | (1/1) Accurately ripped
    3 | (1/1) Accurately ripped
    4 | (1/1) Accurately ripped
    5 | (1/1) Accurately ripped
    6 | (1/1) Accurately ripped
    7 | (1/1) Accurately ripped
    8 | (1/1) Accurately ripped
    9 | (1/1) Accurately ripped
    ==== Log checksum 994E643D35F67F9FF18ACA17A003D14A96CBDE300C5B1289437C494863868325 ====

    REM GENRE Jazz
    REM DATE 1982
    REM DISCID 7B0A7009
    REM COMMENT ExactAudioCopy v1.3
    PERFORMER Henny Vonk
    TITLE Rerootin\'
    REM COMPOSER
    FILE 01 - Frandance.wav WAVE
    TRACK 01 AUDIO
    TITLE Frandance
    PERFORMER Henny Vonk
    REM COMPOSER
    FLAGS DCP
    INDEX 01 00: 00: 00
    FILE 02 - Circle.wav WAVE
    TRACK 02 AUDIO
    TITLE Circle
    PERFORMER Henny Vonk
    REM COMPOSER
    FLAGS DCP
    INDEX 01 00: 00: 00
    FILE 03 - Nefertiti.wav WAVE
    TRACK 03 AUDIO
    TITLE Nefertiti
    PERFORMER Henny Vonk
    REM COMPOSER
    FLAGS DCP
    INDEX 01 00: 00: 00
    FILE 04 - Dolphin Dance.wav WAVE
    TRACK 04 AUDIO
    TITLE Dolphin Dance
    PERFORMER Henny Vonk
    REM COMPOSER
    FLAGS DCP
    INDEX 01 00: 00: 00
    FILE 05 - The Blessing (Jazz Version).wav WAVE
    TRACK 05 AUDIO
    TITLE The Blessing (Jazz Version)
    PERFORMER Henny Vonk
    REM COMPOSER
    FLAGS DCP
    INDEX 01 00: 00: 00
    FILE 06 - A Tribute To Someone.wav WAVE
    TRACK 06 AUDIO
    TITLE A Tribute To Someone
    PERFORMER Henny Vonk
    REM COMPOSER
    FLAGS DCP
    INDEX 01 00: 00: 00
    FILE 07 - Cloud Of Knowledge.wav WAVE
    TRACK 07 AUDIO
    TITLE Cloud Of Knowledge
    PERFORMER Henny Vonk
    REM COMPOSER
    FLAGS DCP
    INDEX 01 00: 00: 00
    FILE 08 - Pompeii.wav WAVE
    TRACK 08 AUDIO
    TITLE Pompeii
    PERFORMER Henny Vonk
    REM COMPOSER
    FLAGS DCP
    INDEX 01 00: 00: 00
    FILE 09 - The Blessing (Latin-Jazz Version).wav WAVE
    TRACK 09 AUDIO
    TITLE The Blessing (Latin-Jazz Version)
    PERFORMER Henny Vonk
    REM COMPOSER
    FLAGS DCP
    INDEX 01 00: 00: 00

    -----------------------
    DON\'T MODIFY THIS FILE
    -----------------------
    PERFORMER: auCDtect Task Manager, ver. 1.6.0 RC1 build 1.6.0.1
    Copyright (c) 2008-2010 y-soft. All rights reserved
    http://y-soft.org
    ANALYZER: auCDtect: CD records authenticity detector, version 0.8.2
    Copyright (c) 2004 Oleg Berngardt. All rights reserved.
    Copyright (c) 2004 Alexander Djourik. All rights reserved.
    FILE: 09 - The Blessing (Latin-Jazz Version).flac
    Size: 35686596 Hash: 38B5BC8E23C580866729F1DA2C84CC2B Accuracy: -m0
    Conclusion: CDDA 94%
    Signature: 84878B04F5613ACD981C4734F9C24EE84C2ED32A
    FILE: 08 - Pompeii.flac
    Size: 23019890 Hash: CB03EE7C22BA7DEA7758B778B7BFAAB5 Accuracy: -m0
    Conclusion: CDDA 99%
    Signature: 88B637827F085FE98F2170F12A361BD8B8DD976C
    FILE: 07 - Cloud Of Knowledge.flac
    Size: 18874349 Hash: B791348ECE8F871BB6762B6C161A6D34 Accuracy: -m0
    Conclusion: CDDA 100%
    Signature: E2D2A26AE21518AB6F3CC36572FBECED10E232A3
    FILE: 06 - A Tribute To Someone.flac
    Size: 24325010 Hash: D1C07E1CE558EB6E18CB7464BE8475D1 Accuracy: -m0
    Conclusion: CDDA 100%
    Signature: 617FF09B9B7638BB9D1F651ACADC53B0080E32A8
    FILE: 05 - The Blessing (Jazz Version).flac
    Size: 20442179 Hash: 5BD4C1DE8D13302ABBC51F83745D2F4E Accuracy: -m0
    Conclusion: CDDA 100%
    Signature: FF8ACC4C8EE77DDCD6C94756CE21E2B3412694F9
    FILE: 04 - Dolphin Dance.flac
    Size: 22982400 Hash: 68317FD348D0D59D668C35B885EF2038 Accuracy: -m0
    Conclusion: CDDA 100%
    Signature: 4D460B7E7922A1C30BDE41C95A24166403099A42
    FILE: 03 - Nefertiti.flac
    Size: 29702911 Hash: 9BE0FAA79B422A693276DFF4A5129D09 Accuracy: -m0
    Conclusion: CDDA 99%
    Signature: DFB2EED8480CC08AD0AEE4B37613D8E6770C1DA4
    FILE: 02 - Circle.flac
    Size: 14280249 Hash: 91BA433383B12A16EDA2887996896AB7 Accuracy: -m0
    Conclusion: CDDA 100%
    Signature: 1655549A890D429305F87C061D82FEE21DDAA851
    FILE: 01 - Frandance.flac
    Size: 40708104 Hash: B0D09904C6CE423F189649E9974695BB Accuracy: -m0
    Conclusion: CDDA 100%
    Signature: EC9C68E6247C7CE9A6095AF6ABCC8C003D029865

    Прямая ссылка скачивания через uTorrent


    Henny Vonk - Rerootin (1982) 2016, Solid Records [FLAC|Lossless|tracks + .cue] <Vocal Jazz>
    Рейтинг →
     (голосов: 1, оценка 4/5, голосовать можно 1 раз )

    Другие торренты по теме:



      Комментарии (0):

      Информация

      Информация

        Посетители, находящиеся в группе Гости, не могут оставлять комментарии в данной новости.

        ↓ Меню




        ↓ Опрос

        Вы добавили сайт в закладки?
        Да
        Нет


        Top 10 за месяц (Музыка)