.
Авторизация | Регистрация
Хочешь лучшие торренты? Добавь свой email!
Добавить

Торрент скачать бесплатно

» » Tommy Flanagan with the Wilbur Harden Quartet - Plays The Music of Rodgers & Hammerstein (1958) 1990, Savoy Jazz [FLAC|Lossless|tracks + .cue] <Hard Bop> торрент скачать бесплатно


    Tommy Flanagan with the Wilbur Harden Quartet - Plays The Music of Rodgers & Hammerstein (1958) 1990, Savoy Jazz [FLAC|Lossless|tracks + .cue] <Hard Bop> торрент скачать бесплатно

    Опубликовал: Админ | Дата: 4-04-2018, 05:00 | .torrent скачали: 0

    Tommy Flanagan with the Wilbur Harden Quartet - Plays The Music of Rodgers & Hammerstein (1958) 1990, Savoy Jazz [FLAC|Lossless|tracks + .cue] &ltHard Bop>Жанр: Hard Bop
    Издание: Savoy Jazz - ZDS 4429
    Продолжительность: 00: 47: 40
    Кодек: FLAC (tracks+.cue)
    Битрейт: Lossless
    Источник (релизер): Dionysius.
    Страна-производитель диска: USA
    Наличие сканов в содержимом раздачи: да

    Треклист

    01. Getting To Know You 04: 05
    02. My Lord And Master 04: 15
    03. Shall We Dance 06: 10
    04. Something Wonderful 02: 35
    05. We Kiss In A Shadow 05: 26
    06. I Have Dreamed 04: 46
    07. I Whistle A Happy Tune 04: 12
    08. Hello Young Lovers 04: 09
    09. Something Wonderful 02: 41
    10. Getting To Know You (Alt.) Reprise 05: 05
    11. Hello Young Lovers (Alt.) 04: 15

    Exact Audio Copy V1.3 from 2. September 2016
    Отчёт EAC об извлечении, выполненном 1. апреля 2018, 11: 45
    Tommy Flanagan And The Wilbur Harden Quartet/Plays The Music Of Rodgers Hammerstein
    Дисковод: HL-DT-STDVDRAM GUA0N Adapter: 1 ID: 0
    Режим чтения : Достоверность
    Использование точного потока : Да
    Отключение кэша аудио : Да
    Использование указателей C2 : Нет
    Коррекция смещения при чтении : 6
    Способность читать области Lead-in и Lead-out : Нет
    Заполнение пропущенных сэмплов тишиной : Да
    Удаление блоков с тишиной в начале и конце : Нет
    При вычислениях CRC использовались нулевые сэмплы : Да
    Интерфейс : Встроенный Win32-интерфейс для Win NT/2000
    Обработка зазоров : Добавлено к предыдущему треку
    Выходной формат : Пользовательский кодировщик
    Выбранный битрейт : 128 kBit/s
    Качество : Высокий
    Добавление ID3-тега : Нет
    Утилита сжатия : C: Program Files (x86)Exact Audio CopyFlacflac.exe
    Дополнительные параметры : -V -8 -T Date=%year% -T Genre=%genre% %source%
    TOC извлечённого CD
    Трек | Старт | Длительность | Начальный сектор | Конечный сектор
    ---------------------------------------------------------------------
    1 | 0: 00.00 | 4: 04.52 | 0 | 18351
    2 | 4: 04.52 | 4: 15.15 | 18352 | 37491
    3 | 8: 19.67 | 6: 10.10 | 37492 | 65251
    4 | 14: 30.02 | 2: 34.48 | 65252 | 76849
    5 | 17: 04.50 | 5: 26.02 | 76850 | 101301
    6 | 22: 30.52 | 4: 46.05 | 101302 | 122756
    7 | 27: 16.57 | 4: 12.15 | 122757 | 141671
    8 | 31: 28.72 | 4: 09.13 | 141672 | 160359
    9 | 35: 38.10 | 2: 40.50 | 160360 | 172409
    10 | 38: 18.60 | 5: 05.10 | 172410 | 195294
    11 | 43: 23.70 | 4: 15.07 | 195295 | 214426
    Трек 1
    Имя файла C: 1 Getting To Know You.wav
    Длина предзазора 0: 00: 02.00
    Пиковый уровень 100.0 %
    Скорость извлечения 1.0 X
    Качество трека 99.9 %
    CRC теста E0EB236B
    CRC копии E0EB236B
    Точное извлечение (достоверность 3) 23EBBE44 (AR v2)
    Копирование... OK
    Трек 2
    Имя файла C: 2 My Lord And Master.wav
    Длина предзазора 0: 00: 03.55
    Пиковый уровень 85.8 %
    Скорость извлечения 1.3 X
    Качество трека 100.0 %
    CRC теста 0D6061F7
    CRC копии 0D6061F7
    Точное извлечение (достоверность 3) 3A39D733 (AR v2)
    Копирование... OK
    Трек 3
    Имя файла C: 3 Shall We Dance.wav
    Длина предзазора 0: 00: 03.12
    Пиковый уровень 87.9 %
    Скорость извлечения 1.5 X
    Качество трека 100.0 %
    CRC теста 51240FA0
    CRC копии 51240FA0
    Точное извлечение (достоверность 3) 59D1B460 (AR v2)
    Копирование... OK
    Трек 4
    Имя файла C: 4 Something Wonderful Alternate Take.wav
    Длина предзазора 0: 00: 04.03
    Пиковый уровень 88.5 %
    Скорость извлечения 1.4 X
    Качество трека 100.0 %
    CRC теста 8AFC9BA8
    CRC копии 8AFC9BA8
    Точное извлечение (достоверность 3) 1A3547E2 (AR v2)
    Копирование... OK
    Трек 5
    Имя файла C: 5 We Kiss In A Shadow.wav
    Длина предзазора 0: 00: 03.03
    Пиковый уровень 72.7 %
    Скорость извлечения 1.5 X
    Качество трека 99.9 %
    CRC теста F9C03676
    CRC копии F9C03676
    Точное извлечение (достоверность 3) 5991B6EB (AR v2)
    Копирование... OK
    Трек 6
    Имя файла C: 6 I Have Dreamed.wav
    Длина предзазора 0: 00: 03.12
    Пиковый уровень 86.1 %
    Скорость извлечения 1.7 X
    Качество трека 100.0 %
    CRC теста 45E9D724
    CRC копии 45E9D724
    Точное извлечение (достоверность 3) A7632CB0 (AR v2)
    Копирование... OK
    Трек 7
    Имя файла C: 7 I Whistle A Happy Tune.wav
    Длина предзазора 0: 00: 03.37
    Пиковый уровень 91.9 %
    Скорость извлечения 1.8 X
    Качество трека 100.0 %
    CRC теста 9F3C858D
    CRC копии 9F3C858D
    Точное извлечение (достоверность 3) 4746DF92 (AR v2)
    Копирование... OK
    Трек 8
    Имя файла C: 8 Hello Young Lovers.wav
    Длина предзазора 0: 00: 03.40
    Пиковый уровень 89.4 %
    Скорость извлечения 1.9 X
    Качество трека 100.0 %
    CRC теста D2BC8BAE
    CRC копии D2BC8BAE
    Точное извлечение (достоверность 3) E92DC186 (AR v2)
    Копирование... OK
    Трек 9
    Имя файла C: 9 Something Wonderful.wav
    Длина предзазора 0: 00: 03.60
    Пиковый уровень 75.6 %
    Скорость извлечения 1.5 X
    Качество трека 99.9 %
    CRC теста 3A5668A5
    CRC копии 3A5668A5
    Точное извлечение (достоверность 3) 24D8BF87 (AR v2)
    Копирование... OK
    Трек 10
    Имя файла C: 10 Getting To Know You Alternate Take - Reprise.wav
    Длина предзазора 0: 00: 02.73
    Пиковый уровень 95.6 %
    Скорость извлечения 1.9 X
    Качество трека 99.9 %
    CRC теста B45E55AD
    CRC копии B45E55AD
    Точное извлечение (достоверность 3) 00BB7B89 (AR v2)
    Копирование... OK
    Трек 11
    Имя файла C: 11 Hello Young Lovers Alternate Take.wav
    Длина предзазора 0: 00: 02.65
    Пиковый уровень 70.1 %
    Скорость извлечения 2.1 X
    Качество трека 100.0 %
    CRC теста C752D47E
    CRC копии C752D47E
    Точное извлечение (достоверность 3) 416CA92A (AR v2)
    Копирование... OK
    Все треки извлечены точно
    Ошибок не произошло
    Конец отчёта
    ==== Контрольная сумма отчёта 53BD68029AFC3F6421BB3D4EC305A5DFF4EBC6C75C6D88CB0D424608CC9D0ABB ====

    REM GENRE Jazz
    REM DATE 1990
    REM DISCID 760B2B0B
    REM COMMENT ExactAudioCopy v1.3
    PERFORMER Tommy Flanagan And The Wilbur Harden Quartet
    TITLE Plays The Music Of Rodgers Hammerstein
    REM COMPOSER
    FILE 01 Getting To Know You.wav WAVE
    TRACK 01 AUDIO
    TITLE Getting To Know You
    PERFORMER Tommy Flanagan And The Wilbur Harden Quartet
    REM COMPOSER
    INDEX 01 00: 00: 00
    TRACK 02 AUDIO
    TITLE My Lord And Master
    PERFORMER Tommy Flanagan And The Wilbur Harden Quartet
    REM COMPOSER
    INDEX 00 04: 00: 72
    FILE 02 My Lord And Master.wav WAVE
    INDEX 01 00: 00: 00
    TRACK 03 AUDIO
    TITLE Shall We Dance
    PERFORMER Tommy Flanagan And The Wilbur Harden Quartet
    REM COMPOSER
    INDEX 00 04: 12: 03
    FILE 03 Shall We Dance.wav WAVE
    INDEX 01 00: 00: 00
    TRACK 04 AUDIO
    TITLE Something Wonderful Alternate Take
    PERFORMER Tommy Flanagan And The Wilbur Harden Quartet
    REM COMPOSER
    INDEX 00 06: 06: 07
    FILE 04 Something Wonderful Alternate Take.wav WAVE
    INDEX 01 00: 00: 00
    TRACK 05 AUDIO
    TITLE We Kiss In A Shadow
    PERFORMER Tommy Flanagan And The Wilbur Harden Quartet
    REM COMPOSER
    INDEX 00 02: 31: 45
    FILE 05 We Kiss In A Shadow.wav WAVE
    INDEX 01 00: 00: 00
    TRACK 06 AUDIO
    TITLE I Have Dreamed
    PERFORMER Tommy Flanagan And The Wilbur Harden Quartet
    REM COMPOSER
    INDEX 00 05: 22: 65
    FILE 06 I Have Dreamed.wav WAVE
    INDEX 01 00: 00: 00
    TRACK 07 AUDIO
    TITLE I Whistle A Happy Tune
    PERFORMER Tommy Flanagan And The Wilbur Harden Quartet
    REM COMPOSER
    INDEX 00 04: 42: 43
    FILE 07 I Whistle A Happy Tune.wav WAVE
    INDEX 01 00: 00: 00
    TRACK 08 AUDIO
    TITLE Hello Young Lovers
    PERFORMER Tommy Flanagan And The Wilbur Harden Quartet
    REM COMPOSER
    INDEX 00 04: 08: 50
    FILE 08 Hello Young Lovers.wav WAVE
    INDEX 01 00: 00: 00
    TRACK 09 AUDIO
    TITLE Something Wonderful
    PERFORMER Tommy Flanagan And The Wilbur Harden Quartet
    REM COMPOSER
    INDEX 00 04: 05: 28
    FILE 09 Something Wonderful.wav WAVE
    INDEX 01 00: 00: 00
    TRACK 10 AUDIO
    TITLE Getting To Know You Alternate Take - Reprise
    PERFORMER Tommy Flanagan And The Wilbur Harden Quartet
    REM COMPOSER
    INDEX 00 02: 37: 52
    FILE 10 Getting To Know You Alternate Take - Reprise.wav WAVE
    INDEX 01 00: 00: 00
    TRACK 11 AUDIO
    TITLE Hello Young Lovers Alternate Take
    PERFORMER Tommy Flanagan And The Wilbur Harden Quartet
    REM COMPOSER
    INDEX 00 05: 02: 20
    FILE 11 Hello Young Lovers Alternate Take.wav WAVE
    INDEX 01 00: 00: 00

    -----------------------
    DON\'T MODIFY THIS FILE
    -----------------------
    PERFORMER: auCDtect Task Manager, ver. 1.6.0 RC1 build 1.6.0.1
    Copyright (c) 2008-2010 y-soft. All rights reserved
    http://y-soft.org
    ANALYZER: auCDtect: CD records authenticity detector, version 0.8.2
    Copyright (c) 2004 Oleg Berngardt. All rights reserved.
    Copyright (c) 2004 Alexander Djourik. All rights reserved.
    FILE: 11 Hello Young Lovers Alternate Take.flac
    Size: 24968935 Hash: 95F22DC85F9B626C8CB976149BA6B909 Accuracy: -m0
    Conclusion: CDDA 99%
    Signature: 74ACDD52BF4D1B51FD93DA0D24E92D7048A9A3F1
    FILE: 10 Getting To Know You Alternate Take - Reprise.flac
    Size: 34678520 Hash: FEC1D1A6EB64B03A76D45F2EE8F8469F Accuracy: -m0
    Conclusion: CDDA 100%
    Signature: BB29E7DFBD2B2035C0D5C64B40729475934E8767
    FILE: 09 Something Wonderful.flac
    Size: 14571318 Hash: 7961E1C07CBE6B0E84ACBCC15FB926FA Accuracy: -m0
    Conclusion: CDDA 100%
    Signature: CE75BDB235A6A6F21D8D33F5F909EDD9300E500C
    FILE: 08 Hello Young Lovers.flac
    Size: 26122029 Hash: D07E19DA44F1FCA43F99685ED2892485 Accuracy: -m0
    Conclusion: CDDA 100%
    Signature: F0A3C09A63D01C176AC55C89E1D2AE71D44D27D4
    FILE: 07 I Whistle A Happy Tune.flac
    Size: 26634826 Hash: 30017EF79C61998F6068D0BB2A3F8FA4 Accuracy: -m0
    Conclusion: CDDA 100%
    Signature: 606F7EC4F64966657298D4EA5F0E96A880BEDB2D
    FILE: 06 I Have Dreamed.flac
    Size: 29298890 Hash: EDD61D5FAC18EF5696CA6F2ADC1DCF72 Accuracy: -m0
    Conclusion: CDDA 100%
    Signature: 9548BCC7FA17E2F8EC988CCE3EAA01A7D6A60E1E
    FILE: 05 We Kiss In A Shadow.flac
    Size: 32134725 Hash: 5DC9AE0D8126312F8C136ED88242D5DD Accuracy: -m0
    Conclusion: CDDA 100%
    Signature: 07D7F338A0862B6C29E59481282271753D2ACAE1
    FILE: 04 Something Wonderful Alternate Take.flac
    Size: 14977611 Hash: 85611EB80F69BC11419086953537AC23 Accuracy: -m0
    Conclusion: CDDA 100%
    Signature: 23BACEDA1E4B71190871035275B78968D45AFB01
    FILE: 03 Shall We Dance.flac
    Size: 43103229 Hash: A3787864D899C198FAB5752EA11E4148 Accuracy: -m0
    Conclusion: CDDA 99%
    Signature: CADF14BF6898FDAE771C03479362D32CC4FF2DB9
    FILE: 02 My Lord And Master.flac
    Size: 24836883 Hash: 4C60CA041C5EA41858A188DA051F023A Accuracy: -m0
    Conclusion: CDDA 100%
    Signature: B7989F71EAE1F31951B2E8EB7A406C75B81DEC9B
    FILE: 01 Getting To Know You.flac
    Size: 28102272 Hash: 1AF1B4AB8175F13FEC80F3C6EBDD41BB Accuracy: -m0
    Conclusion: CDDA 100%
    Signature: 281A2D3FABE15500F523D80651DBC035E6677DB8


    Tommy Flanagan with the Wilbur Harden Quartet - Plays The Music of Rodgers & Hammerstein (1958) 1990, Savoy Jazz [FLAC|Lossless|tracks + .cue] <Hard Bop>
    Рейтинг →
     (голосов: 1, оценка 5/5, голосовать можно 1 раз )

    Другие торренты по теме:

  • Tommy Flanagan - Confirmation (1977 / 1978) / 2005, Landy Star / [FLAC|tracks+.cue]<Jazz, Hard Bop, Piano Jazz> скачать через торрент бесплатно
  • Tommy Flanagan - Jazz Poet (1989) 2015, Timeless Records[FLAC|tracks+.cue]<Post-Bop, Piano Jazz> скачать через торрент бесплатно
  • Rodney Jones & Tommy Flanagan Quartet - My Funny Valentine (1981) Remaster, 2015, Solid Records[FLAC|Lossless|tracks + .cue] <Post-Bop>
  • Tommy Flanagan - Sea Changes (1997) Evidence Music[FLAC|Lossless|tracks + .cue] <Post-Bop, Piano Jazz>


    • Комментарии (0):

      Информация

      Информация

        Посетители, находящиеся в группе Гости, не могут оставлять комментарии в данной новости.

        ↓ Меню




        ↓ Опрос

        Вы добавили сайт в закладки?
        Да
        Нет


        Top 10 за месяц (Музыка)