.
Авторизация | Регистрация
Хочешь лучшие торренты? Добавь свой email!
Добавить

Торрент скачать бесплатно

» » Mantus - Refugium (2016) [FLAC|Lossless|image + .cue] <Darkwave, Gothic Metal> торрент скачать бесплатно


    Mantus - Refugium (2016) [FLAC|Lossless|image + .cue] <Darkwave, Gothic Metal> торрент скачать бесплатно

    Опубликовал: Админ | Дата: 3-04-2018, 05:00 | .torrent скачали: 1

    Mantus - Refugium (2016) [FLAC|Lossless|image + .cue] &ltDarkwave, Gothic Metal>Жанр: Darkwave, Gothic Metal
    Издание: Trisol - TRI 543 CD
    Продолжительность: 00: 54: 04
    Источник (релизер): mart0372
    Кодек: FLAC
    Битрейт: Lossless
    Тип рипа: image + .cue
    Наличие сканов: Да, полные


    Треклист

    01. Ouverture (2: 46)
    02. Zwischen Den Nachten (4: 07)
    03. Niemals Genug (4: 35)
    04. Das Wunder Des Lebens (4: 06)
    05. Schande (4: 40)
    06. Kampf Der Kulturen (4: 41)
    07. Su.es Gift (4: 01)
    08. Gefangener (4: 16)
    09. Traurig Bin Ich Sowieso (4: 02)
    10. Schlie. Die Augen (4: 07)
    11. Welt In Flammen (4: 57)
    12. In Die Wirklichkeit (3: 53)
    13. Refugium (3: 52)
    Код: выделить все

    Exact Audio Copy V1.1 from 23. June 2015
    EAC extraction logfile from 20. May 2016, 1:08
    Mantus/Refugium
    Used drive : PIONEER BD-RW BDR-209D Adapter: 0 ID: 5
    Read mode : Secure
    Utilize accurate stream : Yes
    Defeat audio cache : Yes
    Make use of C2 pointers : No
    Read offset correction : 667
    Overread into Lead-In and Lead-Out : No
    Fill up missing offset samples with silence : Yes
    Delete leading and trailing silent blocks : No
    Null samples used in CRC calculations : Yes
    Used interface : Installed external ASPI interface
    Used output format : User Defined Encoder
    Selected bitrate : 768 kBit/s
    Quality : High
    Add ID3 tag : No
    Command line compressor : C:Program Files (x86)Exact Audio CopyFLACFLAC.EXE
    Additional command line options : -6 -V -T ARTIST=%artist% -T TITLE=%title% -T ALBUM=%albumtitle% -T DATE=%year% -T TRACKNUMBER=%tracknr% -T GENRE=%genre% -T COMMENT=%comment% -T BAND=%albuminterpret% -T ALBUMARTIST=%albuminterpret% -T COMPOSER=%composer% %haslyrics%--tag-from-file=LYRICS=%lyricsfile%%haslyrics% -T DISCNUMBER=%cdnumber% -T TOTALDISCS=%totalcds% -T TOTALTRACKS=%numtracks% %hascover%--picture=%coverfile%%hascover% %source% -o %dest%
    TOC of the extracted CD
    Track | Start | Length | Start sector | End sector
    ---------------------------------------------------------
    1 | 0:00.00 | 2:46.35 | 0 | 12484
    2 | 2:46.35 | 4:07.25 | 12485 | 31034
    3 | 6:53.60 | 4:35.03 | 31035 | 51662
    4 | 11:28.63 | 4:05.38 | 51663 | 70075
    5 | 15:34.26 | 4:40.00 | 70076 | 91075
    6 | 20:14.26 | 4:40.45 | 91076 | 112120
    7 | 24:54.71 | 4:00.59 | 112121 | 130179
    8 | 28:55.55 | 4:16.31 | 130180 | 149410
    9 | 33:12.11 | 4:01.72 | 149411 | 167557
    10 | 37:14.08 | 4:07.13 | 167558 | 186095
    11 | 41:21.21 | 4:57.04 | 186096 | 208374
    12 | 46:18.25 | 3:53.37 | 208375 | 225886
    13 | 50:11.62 | 3:52.26 | 225887 | 243312
    Range status and errors
    Selected range
    Filename E:MUSICMantus - Refugium.wav
    Peak level 99.6 %
    Extraction speed 7.6 X
    Range quality 100.0 %
    Test CRC 41B50FC9
    Copy CRC 41B50FC9
    Copy OK
    No errors occurred
    AccurateRip summary
    Track 1 not present in database
    Track 2 not present in database
    Track 3 not present in database
    Track 4 not present in database
    Track 5 not present in database
    Track 6 not present in database
    Track 7 not present in database
    Track 8 not present in database
    Track 9 not present in database
    Track 10 not present in database
    Track 11 not present in database
    Track 12 not present in database
    Track 13 not present in database
    None of the tracks are present in the AccurateRip database
    End of status report
    ==== Log checksum 999CFD866CAC10267D52D2247153D992D7C137FE53427A788B54A492E5B1EBE1 ====
    Код: выделить все

    REM GENRE Darkwave, Gothic Metal
    REM DATE 2016
    REM DISCID B90CAC0D
    REM COMMENT ExactAudioCopy v1.1
    PERFORMER Mantus
    TITLE Refugium
    FILE Mantus - Refugium.flac WAVE
    TRACK 01 AUDIO
    TITLE 1. Ouverture
    PERFORMER Mantus
    FLAGS DCP
    INDEX 01 00:00:00
    TRACK 02 AUDIO
    TITLE 2. Zwischen Den Nachten
    PERFORMER Mantus
    FLAGS DCP
    INDEX 00 02:44:35
    INDEX 01 02:46:35
    TRACK 03 AUDIO
    TITLE 3. Niemals Genug
    PERFORMER Mantus
    FLAGS DCP
    INDEX 00 06:51:60
    INDEX 01 06:53:60
    TRACK 04 AUDIO
    TITLE 4. Das Wunder Des Lebens
    PERFORMER Mantus
    FLAGS DCP
    INDEX 00 11:26:63
    INDEX 01 11:28:63
    TRACK 05 AUDIO
    TITLE 5. Schande
    PERFORMER Mantus
    FLAGS DCP
    INDEX 00 15:32:26
    INDEX 01 15:34:26
    TRACK 06 AUDIO
    TITLE 6. Kampf Der Kulturen
    PERFORMER Mantus
    FLAGS DCP
    INDEX 00 20:12:26
    INDEX 01 20:14:26
    TRACK 07 AUDIO
    TITLE 7. Su.es Gift
    PERFORMER Mantus
    FLAGS DCP
    INDEX 00 24:52:71
    INDEX 01 24:54:71
    TRACK 08 AUDIO
    TITLE 8. Gefangener
    PERFORMER Mantus
    FLAGS DCP
    INDEX 00 28:53:55
    INDEX 01 28:55:55
    TRACK 09 AUDIO
    TITLE 9. Traurig Bin Ich Sowieso
    PERFORMER Mantus
    FLAGS DCP
    INDEX 00 33:10:11
    INDEX 01 33:12:11
    TRACK 10 AUDIO
    TITLE 10. Schlie. Die Augen
    PERFORMER Mantus
    FLAGS DCP
    INDEX 00 37:12:08
    INDEX 01 37:14:08
    TRACK 11 AUDIO
    TITLE 11. Welt In Flammen
    PERFORMER Mantus
    FLAGS DCP
    INDEX 00 41:19:21
    INDEX 01 41:21:21
    TRACK 12 AUDIO
    TITLE 12. In Die Wirklichkeit
    PERFORMER Mantus
    FLAGS DCP
    INDEX 00 46:16:25
    INDEX 01 46:18:25
    TRACK 13 AUDIO
    TITLE 13. Refugium
    PERFORMER Mantus
    FLAGS DCP
    INDEX 00 50:09:62
    INDEX 01 50:11:62
    Код: выделить все

    -----------------------
    DON\'T MODIFY THIS FILE
    -----------------------
    PERFORMER: auCDtect Task Manager, ver. 1.6.0 RC1 build 1.6.0.1
    Copyright (c) 2008-2010 y-soft. All rights reserved
    http://y-soft.org
    ANALYZER: auCDtect: CD records authenticity detector, version 0.8.2
    Copyright (c) 2004 Oleg Berngardt. All rights reserved.
    Copyright (c) 2004 Alexander Djourik. All rights reserved.
    FILE: Mantus - Refugium.flac
    Size: 393037830 Hash: 3DBCB2DED53F1B14DA523CC0C9A0A25E Accuracy: -m0
    Conclusion: CDDA 100%
    Signature: 9DEEF36237D4A0C84ABE1E1F69C15D51C8246B6F


    Mantus - Refugium (2016) [FLAC|Lossless|image + .cue] <Darkwave, Gothic Metal>
    Рейтинг →
     (голосов: 1, оценка 3/5, голосовать можно 1 раз )

    Другие торренты по теме:

  • Mantus - Melancholia (2015) [MP3|320 кб / с]<Gothic Metal, Darkwave>скачать через торрент бесплатно
  • Mantus - 16 альбомов (2000 - 2015) Discography [FLAC,APE|Lossless]<Darkwave,Gothic Metal,Gothic Rock> скачать через торрент бесплатно
  • Mantus - 16 альбомов (2000 - 2015) Discography [MP3|320 кб / с]<Darkwave, Gothic Metal, Gothic Rock> скачать через торрент бесплатно
  • Mantus - 17 альбомов (2000 - 2016) Discography [MP3|320 кб / с]<Darkwave, Gothic Metal, Gothic Rock>


    • Комментарии (0):

      Информация

      Информация

        Посетители, находящиеся в группе Гости, не могут оставлять комментарии в данной новости.

        ↓ Меню




        ↓ Опрос

        Вы добавили сайт в закладки?
        Да
        Нет


        Top 10 за месяц (Музыка)