.
Авторизация | Регистрация
Хочешь лучшие торренты? Добавь свой email!
Добавить

Торрент скачать бесплатно

  • support: webmaster@btracker.org
» » Lake of Tears - Forever Autumn (1999) Japanese Edition [FLAC|Lossless|image + .cue] <Goth Rock, Doom Metal> торрент скачать бесплатно


    Lake of Tears - Forever Autumn (1999) Japanese Edition [FLAC|Lossless|image + .cue] <Goth Rock, Doom Metal> торрент скачать бесплатно

    Опубликовал: Админ | Дата: 3-04-2018, 05:00 | .torrent скачали: 0

    Lake of Tears - Forever Autumn (1999) Japanese Edition [FLAC|Lossless|image + .cue] &ltGoth Rock, Doom Metal>Жанр: Goth Rock, Doom Metal
    Издание: Nippon Crown - CRCL-4749
    Продолжительность: 00: 45: 26
    Источник (релизер): Hellixxx
    Кодек: FLAC
    Битрейт: Lossless
    Тип рипа: image + .cue
    Наличие сканов: Да, полные


    Треклист

    01. So Fell Autumn Rain (5: 23)
    02. Hold On Tight (4: 06)
    03. Forever Autumn (5: 56)
    04. Pagan Wish (4: 24)
    05. Otherwheres (3: 55)
    06. The Homecoming (5: 16)
    07. Come Night I Reign (3: 51)
    08. Demon You/Lily Anne (4: 21)
    09. To Blossom Blue (8: 14)
    Код: выделить все

    Exact Audio Copy V1.0 beta 3 from 29. August 2011
    Отчёт EAC об извлечении, выполненном 7. января 2013, 14:41
    Lake Of Tears/Forever Autumn
    Дисковод: PIONEER DVD-RW DVR-111D Adapter: 4 ID: 1
    Режим чтения : Достоверность
    Использование точного потока : Да
    Отключение кэша аудио : Да
    Использование указателей C2 : Нет
    Коррекция смещения при чтении : 48
    Способность читать области Lead-in и Lead-out : Нет
    Заполнение пропущенных сэмплов тишиной : Да
    Удаление блоков с тишиной в начале и конце : Нет
    При вычислениях CRC использовались нулевые сэмплы : Да
    Интерфейс : Встроенный Win32-интерфейс для Win NT/2000
    Выходной формат : Пользовательский кодировщик
    Выбранный битрейт : 128 kBit/s
    Качество : Высокий
    Добавление ID3-тега : Нет
    Утилита сжатия : F:Program FilesFLACflac.exe
    Дополнительные параметры : -V -8 -T Date=%year% -T Genre=%genre% %source%
    TOC извлечённого CD
    Трек | Старт | Длительность | Начальный сектор | Конечный сектор
    ---------------------------------------------------------------------
    1 | 0:00.00 | 5:22.65 | 0 | 24214
    2 | 5:22.65 | 4:06.20 | 24215 | 42684
    3 | 9:29.10 | 5:56.02 | 42685 | 69386
    4 | 15:25.12 | 4:23.43 | 69387 | 89154
    5 | 19:48.55 | 3:54.47 | 89155 | 106751
    6 | 23:43.27 | 5:15.63 | 106752 | 130439
    7 | 28:59.15 | 3:50.67 | 130440 | 147756
    8 | 32:50.07 | 4:21.33 | 147757 | 167364
    9 | 37:11.40 | 8:14.22 | 167365 | 204436
    Характеристики диапазона извлечения и сообщения об ошибках
    Выбранный диапазон
    Имя файла D:EAC - extractLake of Tears - 1999 - Forever Autumn (CRCL-4749).wav
    Пиковый уровень 99.8 %
    Скорость извлечения 6.9 X
    Качество диапазона 100.0 %
    CRC теста 82E1FB06
    CRC копии 82E1FB06
    Копирование... OK
    Ошибок не произошло
    AccurateRip: сводка
    Трек 1 отсутствует в базе данных
    Трек 2 отсутствует в базе данных
    Трек 3 отсутствует в базе данных
    Трек 4 отсутствует в базе данных
    Трек 5 отсутствует в базе данных
    Трек 6 отсутствует в базе данных
    Трек 7 отсутствует в базе данных
    Трек 8 отсутствует в базе данных
    Трек 9 отсутствует в базе данных
    Ни одного трека нет в базе AccurateRip
    Конец отчёта
    ==== Контрольная сумма отчёта 91EBC3E8A282AEA07356B109E4B210970880D9DE83FC07AC3503F6547C44BB63 ====
    Код: выделить все

    REM GENRE Metal
    REM DATE 1999
    REM DISCID 6B0AA509
    REM COMMENT ExactAudioCopy v1.0b3
    PERFORMER Lake Of Tears
    TITLE Forever Autumn
    FILE Lake of Tears - 1999 - Forever Autumn (CRCL-4749).flac WAVE
    TRACK 01 AUDIO
    TITLE So Fell Autumn Rain
    PERFORMER Lake Of Tears
    INDEX 01 00:00:00
    TRACK 02 AUDIO
    TITLE Hold On Tight
    PERFORMER Lake Of Tears
    INDEX 01 05:22:65
    TRACK 03 AUDIO
    TITLE Forever Autumn
    PERFORMER Lake Of Tears
    INDEX 00 09:26:17
    INDEX 01 09:29:10
    TRACK 04 AUDIO
    TITLE Pagan Wish
    PERFORMER Lake Of Tears
    INDEX 00 15:22:62
    INDEX 01 15:25:12
    TRACK 05 AUDIO
    TITLE Otherwheres
    PERFORMER Lake Of Tears
    INDEX 00 19:47:15
    INDEX 01 19:48:55
    TRACK 06 AUDIO
    TITLE The Homecoming
    PERFORMER Lake Of Tears
    INDEX 00 23:41:22
    INDEX 01 23:43:27
    TRACK 07 AUDIO
    TITLE Come Night I Reign
    PERFORMER Lake Of Tears
    INDEX 00 28:56:47
    INDEX 01 28:59:15
    TRACK 08 AUDIO
    TITLE Demon You/Lily Anne
    PERFORMER Lake Of Tears
    INDEX 00 32:47:40
    INDEX 01 32:50:07
    TRACK 09 AUDIO
    TITLE To Blossom Blue
    PERFORMER Lake Of Tears
    INDEX 00 37:08:65
    INDEX 01 37:11:40
    Код: выделить все

    -----------------------
    DON\'T MODIFY THIS FILE
    -----------------------
    PERFORMER: auCDtect Task Manager, ver. 1.6.0 RC1 build 1.6.0.1
    Copyright (c) 2008-2010 y-soft. All rights reserved
    http://y-soft.org
    ANALYZER: auCDtect: CD records authenticity detector, version 0.8.2
    Copyright (c) 2004 Oleg Berngardt. All rights reserved.
    Copyright (c) 2004 Alexander Djourik. All rights reserved.
    FILE: Lake of Tears - 1999 - Forever Autumn (CRCL-4749).flac
    Size: 329058460 Hash: E3B46341702F1D0F3E7AC693788E6545 Accuracy: -m0
    Conclusion: CDDA 100%
    Signature: A62D7B66B5D58842B60EE18CF347C2D9D19B3C77


    Lake of Tears - Forever Autumn (1999) Japanese Edition [FLAC|Lossless|image + .cue] <Goth Rock, Doom Metal>
    Рейтинг →
     (голосов: 1, оценка 3/5, голосовать можно 1 раз )

    Другие торренты по теме:

  • Lake of Tears - Headstones (1995) Japanese Edition [FLAC|Lossless|image + .cue] <Goth Rock, Doom Metal>
  • Lake of Tears - Illwill (2011) Japanese Edition [FLAC|Lossless|image + .cue] <Goth Rock, Doom Metal>


    • Комментарии (0):

      Информация

      Информация

        Посетители, находящиеся в группе Гости, не могут оставлять комментарии в данной новости.

        ↓ Меню




        ↓ Опрос

        Вы добавили сайт в закладки?
        Да
        Нет


        Top 10 за месяц (Музыка)

        Павел Пламенев - Неофициальный сборник песен (2014 - 2016) [MP3|192 кб / с] <русский рок, рок>

        (скачиваний: 70)
        Нейромонах Феофан - 2 альбома, 4 сингла (2015-2017) [MP3|320 Kbps] <Drum & Bass, Neurofunk>

        (скачиваний: 67)
        Кипелов - Коллекция легендарных песен (2010) [MP3|320 кб / с]<Rock> скачать через торрент бесплатно

        (скачиваний: 47)
        Чиж & Co - Коллекция легендарных песен (2014) [MP3|320 кб / с]<Rock> скачать через торрент бесплатно

        (скачиваний: 44)
        Uma2rmaH (Uma2rman, Уматурман) feat. Павло Шевчук - Не нашего мира (2018) [MP3|320 Kbps] <Pop-Rock>

        (скачиваний: 36)
        И. С. Бах (J. S. Bach) - Полное собрание произведений (Hanssler 172 CD) (2000) [MP3|320 кб / с] <Classical>

        (скачиваний: 31)
        Юрий Визбор - Коллекция легендарных песен (2010) [MP3|320 кб / с]<Авторская песня> скачать через торрент бесплатно

        (скачиваний: 30)
        Дима Билан - 12 альбомов, 4 сингла (2003 - 2017) [MP3|320 Kbps] <Pop>

        (скачиваний: 29)
        Zaz - 4 альбома (8CD) (2010 - 2014) Дискография [FLAC|Lossless]<Nu Jazz, Chanson, Soul> скачать через торрент бесплатно

        (скачиваний: 28)
        БАСТА / НоГгано / N1NT3ND0 - 12 Альбомов (2006-2015) Дискография [FLAC|tracks, image+ .cue]<Rap, Hip-Hop> скачать через торрент бесплатно

        (скачиваний: 27)