.
Авторизация | Регистрация
Хочешь лучшие торренты? Добавь свой email!
Добавить

Торрент скачать бесплатно

» » Lake of Tears - Headstones (1995) Japanese Edition [FLAC|Lossless|image + .cue] <Goth Rock, Doom Metal> торрент скачать бесплатно


    Lake of Tears - Headstones (1995) Japanese Edition [FLAC|Lossless|image + .cue] <Goth Rock, Doom Metal> торрент скачать бесплатно

    Опубликовал: Админ | Дата: 3-04-2018, 05:00 | .torrent скачали: 3

    Lake of Tears - Headstones (1995) Japanese Edition [FLAC|Lossless|image + .cue] &ltGoth Rock, Doom Metal>Жанр: Goth Rock, Doom Metal
    Издание: Victor - VICP-5654
    Продолжительность: 00: 48: 24
    Источник (релизер): Hellixxx
    Кодек: FLAC
    Битрейт: Lossless
    Тип рипа: image + .cue
    Наличие сканов: Да, полные


    Треклист

    01. A Foreign Road (4: 08)
    02. Raven Land (5: 42)
    03. Dreamdemons (5: 15)
    04. Sweetwater (4: 33)
    05. Life\'s But a Dream (1: 25)
    06. Headstones (5: 16)
    07. Twilight (4: 58)
    08. Burn Fire Burn (3: 39)
    09. The Path of The Gods (Upon The Highest Mountain, Part 2) (13: 30)
    Код: выделить все

    Exact Audio Copy V1.1 from 23. June 2015
    EAC extraction logfile from 23. April 2016, 13:23
    Lake of Tears/Headstones
    Used drive : ASUS DRW-24F1ST a Adapter: 1 ID: 0
    Read mode : Secure
    Utilize accurate stream : Yes
    Defeat audio cache : Yes
    Make use of C2 pointers : No
    Read offset correction : 6
    Overread into Lead-In and Lead-Out : No
    Fill up missing offset samples with silence : Yes
    Delete leading and trailing silent blocks : No
    Null samples used in CRC calculations : Yes
    Used interface : Native Win32 interface for Win NT 2000
    Used output format : User Defined Encoder
    Selected bitrate : 768 kBit/s
    Quality : High
    Add ID3 tag : No
    Command line compressor : C:Program Files (x86)FLAC Frontendtoolsflac.exe
    Additional command line options : -V -8 -T Date=%year% -T Genre=%genre% %source%
    TOC of the extracted CD
    Track | Start | Length | Start sector | End sector
    ---------------------------------------------------------
    1 | 0:00.37 | 4:08.15 | 37 | 18651
    2 | 4:08.52 | 5:41.38 | 18652 | 44264
    3 | 9:50.15 | 5:14.42 | 44265 | 67856
    4 | 15:04.57 | 4:33.05 | 67857 | 88336
    5 | 19:37.62 | 1:24.50 | 88337 | 94686
    6 | 21:02.37 | 5:15.45 | 94687 | 118356
    7 | 26:18.07 | 4:58.10 | 118357 | 140716
    8 | 31:16.17 | 3:38.58 | 140717 | 157124
    9 | 34:55.00 | 13:29.72 | 157125 | 217871
    Range status and errors
    Selected range
    Filename G:EAC - Hellixxx ripLake of Tears - 1995 - Headstones (VICP-5654).wav
    Peak level 99.2 %
    Extraction speed 2.4 X
    Range quality 100.0 %
    Test CRC CFB02415
    Copy CRC CFB02415
    Copy OK
    No errors occurred
    AccurateRip summary
    Track 1 accurately ripped (confidence 2) [B9369C17] (AR v2)
    Track 2 accurately ripped (confidence 2) [59FB51C8] (AR v2)
    Track 3 accurately ripped (confidence 2) [EB00C39F] (AR v2)
    Track 4 accurately ripped (confidence 2) [5191B02B] (AR v2)
    Track 5 accurately ripped (confidence 2) [E343B31C] (AR v2)
    Track 6 accurately ripped (confidence 2) [664943E0] (AR v2)
    Track 7 accurately ripped (confidence 2) [FB349F58] (AR v2)
    Track 8 accurately ripped (confidence 2) [0672BF96] (AR v2)
    Track 9 accurately ripped (confidence 2) [2E18776C] (AR v2)
    All tracks accurately ripped
    End of status report
    ==== Log checksum FEB8236183E99294E12739859A1331116101D4E0E72A6FB8945BBD60C974940C ====
    Код: выделить все

    REM GENRE Metal
    REM DATE 1995
    REM DISCID 7F0B5809
    REM COMMENT ExactAudioCopy v1.1
    PERFORMER Lake of Tears
    TITLE Headstones
    FILE Lake of Tears - 1995 - Headstones (VICP-5654).flac WAVE
    TRACK 01 AUDIO
    TITLE A Foreign Road
    PERFORMER Lake of Tears
    INDEX 00 00:00:00
    INDEX 01 00:00:37
    TRACK 02 AUDIO
    TITLE Raven Land
    PERFORMER Lake of Tears
    INDEX 01 04:08:52
    TRACK 03 AUDIO
    TITLE Dreamdemons
    PERFORMER Lake of Tears
    INDEX 00 09:49:08
    INDEX 01 09:50:15
    TRACK 04 AUDIO
    TITLE Sweetwater
    PERFORMER Lake of Tears
    INDEX 00 15:03:16
    INDEX 01 15:04:57
    TRACK 05 AUDIO
    TITLE Life\'s But a Dream
    PERFORMER Lake of Tears
    INDEX 01 19:37:62
    TRACK 06 AUDIO
    TITLE Headstones
    PERFORMER Lake of Tears
    INDEX 01 21:02:37
    TRACK 07 AUDIO
    TITLE Twilight
    PERFORMER Lake of Tears
    INDEX 00 26:17:08
    INDEX 01 26:18:07
    TRACK 08 AUDIO
    TITLE Burn Fire Burn
    PERFORMER Lake of Tears
    INDEX 01 31:16:17
    TRACK 09 AUDIO
    TITLE The Path of The Gods (Upon The Highest Mountain, Part 2)
    PERFORMER Lake of Tears
    INDEX 00 34:52:36
    INDEX 01 34:55:00
    Код: выделить все

    -----------------------
    DON\'T MODIFY THIS FILE
    -----------------------
    PERFORMER: auCDtect Task Manager, ver. 1.6.0 RC1 build 1.6.0.1
    Copyright (c) 2008-2010 y-soft. All rights reserved
    http://y-soft.org
    ANALYZER: auCDtect: CD records authenticity detector, version 0.8.2
    Copyright (c) 2004 Oleg Berngardt. All rights reserved.
    Copyright (c) 2004 Alexander Djourik. All rights reserved.
    FILE: Lake of Tears - 1995 - Headstones (VICP-5654).flac
    Size: 356160526 Hash: 54B99C94CAE92ABFD3B881F0676BD74D Accuracy: -m0
    Conclusion: CDDA 100%
    Signature: F690C0C492DF3D285E0B47DB6A0AAFC733939AF7


    Lake of Tears - Headstones (1995) Japanese Edition [FLAC|Lossless|image + .cue] <Goth Rock, Doom Metal>
    Рейтинг →
     (голосов: 1, оценка 3/5, голосовать можно 1 раз )

    Другие торренты по теме:

  • Lake of Tears - Forever Autumn (1999) Japanese Edition [FLAC|Lossless|image + .cue] <Goth Rock, Doom Metal>
  • Lake of Tears - Illwill (2011) Japanese Edition [FLAC|Lossless|image + .cue] <Goth Rock, Doom Metal>


    • Комментарии (0):

      Информация

      Информация

        Посетители, находящиеся в группе Гости, не могут оставлять комментарии в данной новости.

        ↓ Меню




        ↓ Опрос

        Вы добавили сайт в закладки?
        Да
        Нет


        Top 10 за месяц (Музыка)