.
Авторизация | Регистрация
Хочешь лучшие торренты? Добавь свой email!
Добавить

Торрент скачать бесплатно

  • support: webmaster@btracker.org
» » Дикие предки / Early Man (2018) UHD BDRemux [H.265 / 2160p] [4K, HDR, 10-bit] торрент скачать бесплатно


    Дикие предки / Early Man (2018) UHD BDRemux [H.265 / 2160p] [4K, HDR, 10-bit] торрент скачать бесплатно

    Опубликовал: Админ | Дата: 1-06-2018, 05:00 | .torrent скачали: 0

    Дикие предки / Early Man (2018) UHD BDRemux [H.265 / 2160p] [4K, HDR, 10-bit]Производство: Великобритания, Франция/Aardman Animations
    Жанр: мультфильм
    Режиссер: Ник Парк
    Продюсер: Ричард Бик, Питер Лорд, Ник Парк

    Актеры
    Эдди Редмэйн, Том Хиддлстон, Мэйси Уильямс, Тимоти Сполл, Ричард Айоади, Марк Уильямс, Мириам Маргулис, Роб Брайдон, Ник Парк, Джонни Вегас

    Описание

    Каменный век и даже более поздние цивилизации — всё равно дикие предки, но как же они были похожи на нас. У них тоже было слишком много родственников, а мужчины боролись за любимую женщину. Они тоже обожали драгоценности, играли в кожаный мяч, и каждый стремился стать первым…

    Возраст: 6+ (зрителям, достигшим 6 лет)
    Рейтинг MPAA: PG-13 (детям до 13 лет просмотр нежелателен)
    Премьера (мир): 20 января 2018
    Премьера (РФ): 22 марта 2018, Вольга

    Релиз от: ExKinoRay Ivantsov
    Продолжительность: 01: 28: 37
    Качество: UHD BDRemux (HDR)
    Перевод: Дублированный (iTunes)
    Субтитры: Английские
    Видео: HEVC/H.265, 3840x2160p, (16: 9), 63 Mbps, 24.000 fps
    Аудио 1: AC3, 6 ch, 384 kbps - Русский
    Аудио 2: AC3, 6 ch, 384 kbps - Украинский
    Аудио 3: TrueHD-Atmos, 8 ch, 3308 kbps - Английский
    Аудио 4: AC3, 6 ch, 640 kbps - Английский
    Аудио 5: AC3, 2 ch, 448 kbps - Английский, Audiodescription
    Диск на Blu-ray.com
    Просмотр 4K HDR-контента на ПК
    Общее
    Уникальный идентификатор : 311667638565220602953259925195101690060 (0xEA7900F7C956CF4C0E58B69A05B9D8CC)
    Полное имя : Early.Man.2018.BDRemux.2160p.4K.UltraHD.HEVC.HDR.IVA(RUS.UKR.ENG).ExKinoRay.mkv
    Формат : Matroska
    Версия формата : Version 4/Version 2
    Размер файла : 42, 2 Гбайт
    Продолжительность : 1 ч. 28 м.
    Режим общего битрейта : Переменный
    Общий поток : 68, 2 Мбит/сек
    Название фильма : Дикие предки/Early Man ( 2018 ) UHD BDRemux | HDR, 4K | IVA(RUS.UKR.ENG) | ExKinoRay
    Дата кодирования : UTC 2018-05-28 15: 17: 22
    Программа кодирования : mkvmerge v23.0.0 (\'The Bride Said No\') 64-bit
    Библиотека кодирования : libebml v1.3.6 + libmatroska v1.4.9
    Обложка : Yes
    Attachments : cover
    Видео
    Идентификатор : 1
    Формат : HEVC
    Формат/Информация : High Efficiency Video Coding
    Коммерческое название : HDR10
    Профиль формата : Main10@L5.1@High
    Идентификатор кодека : V_MPEGH/ISO/HEVC
    Продолжительность : 1 ч. 28 м.
    Битрейт : 63, 0 Мбит/сек
    Ширина : 3840 пикселей
    Высота : 2160 пикселей
    Соотношение сторон : 16: 9
    Режим частоты кадров : Постоянный
    Частота кадров : 24, 000 кадра/сек
    Цветовое пространство : YUV
    Субдискретизация насыщенности : 4: 2: 0 (Type 2)
    Битовая глубина : 10 бит
    Бит/(Пиксели*Кадры) : 0.316
    Размер потока : 39, 0 Гбайт (92%)
    Заголовок : Early.Man.2018.BDRemux.2160p.4K.UltraHD.HEVC.HDR
    Язык : English
    Default : Да
    Forced : Нет
    Цветовой диапазон : Limited
    Основные цвета : BT.2020
    Характеристики трансфера : PQ
    Коэффициенты матрицы : BT.2020 non-constant
    MasteringDisplay_Luminance : min: 0.0001 cd/m2, max: 1000 cd/m2
    Аудио #1
    Идентификатор : 2
    Формат : AC-3
    Формат/Информация : Audio Coding 3
    Идентификатор кодека : A_AC3
    Продолжительность : 1 ч. 28 м.
    Вид битрейта : Постоянный
    Битрейт : 384 Кбит/сек
    Каналы : 6 каналов
    Расположение каналов : Front: L C R, Side: L R, LFE
    Частота : 48, 0 КГц
    Частота кадров : 31, 250 кадров/сек (1536 SPF)
    Битовая глубина : 16 бит
    Метод сжатия : С потерями
    Размер потока : 243 Мбайт (1%)
    Заголовок : | Дублированный, iTunes |
    Язык : Russian
    ServiceKind/String : Complete Main
    Default : Да
    Forced : Нет
    Аудио #2
    Идентификатор : 3
    Формат : AC-3
    Формат/Информация : Audio Coding 3
    Идентификатор кодека : A_AC3
    Продолжительность : 1 ч. 28 м.
    Вид битрейта : Постоянный
    Битрейт : 384 Кбит/сек
    Каналы : 6 каналов
    Расположение каналов : Front: L C R, Side: L R, LFE
    Частота : 48, 0 КГц
    Частота кадров : 31, 250 кадров/сек (1536 SPF)
    Битовая глубина : 16 бит
    Метод сжатия : С потерями
    Размер потока : 243 Мбайт (1%)
    Заголовок : | Дублированный, iTunes |
    Язык : Ukrainian
    ServiceKind/String : Complete Main
    Default : Нет
    Forced : Нет
    Аудио #3
    Идентификатор : 4
    Формат : TrueHD
    Профиль формата : TrueHD+Atmos/TrueHD
    Идентификатор кодека : A_TRUEHD
    Продолжительность : 1 ч. 28 м.
    Вид битрейта : Переменный
    Битрейт : 3308 Кбит/сек
    Максимальный битрейт : 5088 Кбит/сек
    Каналы : Object Based/8 каналов
    Расположение каналов : Object Based/Front: L C R, Side: L R, Back: L R, LFE
    Частота : /48, 0 КГц
    Частота кадров : 1200, 000 кадров/сек (40 SPF)
    Метод сжатия : Без потерь
    Задержка видео : 3 с. 0 мс.
    Размер потока : 2, 05 Гбайт (5%)
    Заголовок : | Original |
    Язык : English
    Default : Нет
    Forced : Нет
    Аудио #4
    Идентификатор : 5
    Формат : AC-3
    Формат/Информация : Audio Coding 3
    Идентификатор кодека : A_AC3
    Продолжительность : 1 ч. 28 м.
    Вид битрейта : Постоянный
    Битрейт : 640 Кбит/сек
    Каналы : 6 каналов
    Расположение каналов : Front: L C R, Side: L R, LFE
    Частота : 48, 0 КГц
    Частота кадров : 31, 250 кадров/сек (1536 SPF)
    Битовая глубина : 16 бит
    Метод сжатия : С потерями
    Размер потока : 406 Мбайт (1%)
    Заголовок : | Original, AC3 Core |
    Язык : English
    ServiceKind/String : Complete Main
    Default : Нет
    Forced : Нет
    Аудио #5
    Идентификатор : 6
    Формат : AC-3
    Формат/Информация : Audio Coding 3
    Идентификатор кодека : A_AC3
    Продолжительность : 1 ч. 28 м.
    Вид битрейта : Постоянный
    Битрейт : 448 Кбит/сек
    Каналы : 2 канала
    Расположение каналов : Front: L R
    Частота : 48, 0 КГц
    Частота кадров : 31, 250 кадров/сек (1536 SPF)
    Битовая глубина : 16 бит
    Метод сжатия : С потерями
    Размер потока : 284 Мбайт (1%)
    Заголовок : | Audiodescription |
    Язык : English
    ServiceKind/String : Complete Main
    Default : Нет
    Forced : Нет
    Текст
    Идентификатор : 7
    Формат : UTF-8
    Идентификатор кодека : S_TEXT/UTF8
    Идентификатор кодека/Информация : UTF-8 Plain Text
    Продолжительность : 1 ч. 25 м.
    Битрейт : 62 бит/сек
    ElementCount : 1554
    Размер потока : 39, 5 Кбайт (0%)
    Язык : English
    Default : Нет
    Forced : Нет
    Меню
    00: 00: 00.000 : en: Chapter 1
    00: 04: 01.791 : en: Chapter 2
    00: 09: 15.083 : en: Chapter 3
    00: 16: 30.375 : en: Chapter 4
    00: 21: 08.458 : en: Chapter 5
    00: 25: 49.916 : en: Chapter 6
    00: 36: 19.875 : en: Chapter 7
    00: 45: 28.416 : en: Chapter 8
    00: 52: 57.375 : en: Chapter 9
    00: 57: 18.208 : en: Chapter 10
    01: 07: 41.375 : en: Chapter 11
    01: 17: 08.458 : en: Chapter 12
    YouTube

    Скриншоты для ознакомления


    Релизы мультфильма Дикие предки/Early Man на NNM Club
    Время раздачи: с 9: 00 до 23: 00


    Онлайн видео Дикие предки



    Дикие предки/Early Man (2018) UHD BDRemux [H.265/2160p] [4K, HDR, 10-bit]
    Рейтинг →
     (голосов: 1, оценка 3/5, голосовать можно 1 раз )

    Другие торренты по теме:

  • Дикие предки / Early Man (2018) WEBRip [H.264 / 1080p-LQ] [EN / EN Sub]
  • Дикие предки / Early Man (2018) BDRip [H.264 / 1080p] [EN / EN Sub]
  • Дикие предки / Early Man (2018) AC3 5.1 [hand made]
  • Дикие предки / Early Man (2018) BDRip [H.264]
  • Дикие предки / Early Man (2018) BDRip [H.264 / 1080p]
  • Дикие предки / Early Man (2018) BDRip [H.265 / 1080p-LQ] [10-bit]
  • Дикие предки / Early Man (2018) UHD BDRemux [H.265 / 2160p] [4K, HDR, Dolby Vision, 10-bit]


    • Комментарии (0):

      Информация

      Информация

        Посетители, находящиеся в группе Гости, не могут оставлять комментарии в данной новости.

        ↓ Меню




        ↓ Опрос

        Вы добавили сайт в закладки?
        Да
        Нет


        Top 10 за месяц (Мультфильмы)