.
Авторизация | Регистрация
Хочешь лучшие торренты? Добавь свой email!
Добавить

Торрент скачать бесплатно

  • support: webmaster@btracker.org
» » Ледниковый период: Пенталогия / Ice Age: The Pentalogy (2002 / 2006 / 2009 / 2012 / 2016) BDRip [H.265 / 1080p-LQ] [10-bit] торрент скачать бесплатно


    Ледниковый период: Пенталогия / Ice Age: The Pentalogy (2002 / 2006 / 2009 / 2012 / 2016) BDRip [H.265 / 1080p-LQ] [10-bit] торрент скачать бесплатно

    Опубликовал: Админ | Дата: 30-05-2018, 05:00 | .torrent скачали: 0

    Ледниковый период: Пенталогия / Ice Age: The Pentalogy (2002 / 2006 / 2009 / 2012 / 2016) BDRip [H.265 / 1080p-LQ] [10-bit]Русское название: Ледниковый период: Пенталогия
    Оригинальное название: Ice Age: The Pentalogy
    Страна: США
    Студия: Blue Sky Studios
    Год выпуска: 2002/2006/2009/2012/2016
    Жанр: мультфильм, фэнтези, комедия, приключения, семейный
    Режиссер: Карлос Салдана, Крис Уэдж, Майк Тёрмайер, Стив Мартино, Гален Т. Чу
    В ролях: Джон Легуизамо, Квин Латифа, Дэнис Лири, Саймон Пегг, Джош Пек, Рэй Романо, Шонн Уильям Скотт, Карен Дишер, Крис Ведж, Юнис Чо, Кристиан Пайкс, Харрисон Фан, Мэйл Флэнеган, Джейсон Фриччион, Билл Хадер и другие
    Продолжительность: 01: 21: 09 | 01: 30: 36 | 01: 34: 03 | 01: 27: 46 | 01: 34: 32
    Описание коллекции:
    Сборник мультипликационных фильмов киностудии Blue Sky Studios, повествующих о приключениях Мамонта, Саблезубого тигра, Ленивца и Белки в доисторические времена: от Ледникового периода до космической катастрофы - падения метеорита. В сборник вошли следующие мультфильмы: Ледниковый период, Ледниковый период 2: Глобальное потепление, Ледниковый период 3: Эра динозавров, Ледниковый период 4: Континентальный дрейф и Ледниковый период: Столкновение неизбежно.
    Релиз от: Мичман
    Доп. информация : - H.265/HEVC (High Efficiency Video Coding) - это новый стандарт кодирования видео.
    - Стандарт H.265/HEVC является логическим продолжением стандарта H.264/AVC (Advanced Video Coding), и характеризуется более эффективными алгоритмами сжатия, а также поддержкой высокого разрешения вплоть до 8K UHD (8192x4320). Первая версия стандарта H.265 была опубликована в начале 2013 года.
    - Рипы в фомате HEVC поддерживается не всеми аппаратными проигрывателями.
    - Для корректного воспроизведения может потребоваться обновление ПО.
    - Владельцам несовместимого железа просьба не беспокоить, есть альтернативные релизы.
    Ледниковый период/Ice Age (2002) BDRip
    Производство: США
    Жанр: Мультфильм, фэнтези, комедия, приключения, семейный
    Режиссер: Крис Уэдж, Карлос Салдана
    Роли озвучивали: Рэй Романо, Джон Легуизамо, Денис Лири, Крис Уэдж, Горан Вишнич, Джек Блэк, Алан Тьюдик, Седрик Развлекатель, Стивен Рут

    Описание

    Действие разворачивается 20 тыс. лет назад. Чтобы избежать приближающегося из-за наступления ледникового периода холода, животные мигрируют на юг. Однако некоторые из них всё-таки решают остаться — одинокий, угрюмый мамонт Манфред, а также бесшабашный ленивец Сид.

    Возраст: 0+ (для любой зрительской аудитории)
    Рейтинг MPAA: PG (рекомендуется присутствие родителей)
    Релиз от: Мичман
    Продолжительность: 01: 21: 09
    Качество видео: BDRip
    Перевод: Дублированный
    Субтитры: Русские, английские
    Видео: HEVC/H.265, 1920х1040, ~5934 Kbps
    Аудио 1: AC3, 6 ch, 640 Kbps (Дубляж)
    Аудио 2: AC3, 6 ch, 384 Kbps (Оригинал)

    Общее
    Уникальный идентификатор : 181844225015890235387216605226461979652 (0x88CDEC7F48B2AEFF36B8EB6546CE6404)
    Полное имя : J: ФИЛЬМЫЛедниковый период. (Пенталогия). 1080р. HEVC. Рип от МичманаЛедниковый период. 2002. 1080р. HEVC. Рип от Мичмана..mkv
    Формат : Matroska
    Версия формата : Version 4/Version 2
    Размер файла : 3, 95 Гбайт
    Продолжительность : 1 ч. 21 м.
    Общий поток : 6961 Кбит/сек
    Название фильма : Рип от Мичмана
    Дата кодирования : UTC 2018-05-24 06: 12: 42
    Программа кодирования : mkvmerge v21.0.0 (\'Tardigrades Will Inherit The Earth\') 64-bit
    Библиотека кодирования : libebml v1.3.5 + libmatroska v1.4.8
    Обложка : Yes
    Attachments : cover.jpg
    Видео
    Идентификатор : 1
    Формат : HEVC
    Формат/Информация : High Efficiency Video Coding
    Профиль формата : Main 10@L4@Main
    Идентификатор кодека : V_MPEGH/ISO/HEVC
    Продолжительность : 1 ч. 21 м.
    Битрейт : 5934 Кбит/сек
    Ширина : 1920 пикселей
    Высота : 1040 пикселей
    Соотношение сторон : 1, 85: 1
    Режим частоты кадров : Постоянный
    Частота кадров : 23, 976 (24000/1001) кадра/сек
    Цветовое пространство : YUV
    Субдискретизация насыщенности : 4: 2: 0
    Битовая глубина : 10 бит
    Бит/(Пиксели*Кадры) : 0.124
    Размер потока : 3, 36 Гбайт (85%)
    Библиотека кодирования : x265 2.7+336-07defe235cde: Windowsclang 7.0.064 bit 10bit
    Настройки программы : cpuid=1064959/frame-threads=9/numa-pools=8/wpp/no-pmode/no-pme/no-psnr/no-ssim/log-level=3/input-csp=1/input-res=1920x1040/interlace=0/total-frames=0/level-idc=0/high-tier=1/uhd-bd=0/ref=3/allow-non-conformance/no-repeat-t_heads/annexb/no-aud/no-hrd/info/hash=0/no-temporal-layers/open-gop/min-keyint=24/keyint=240/gop-lookahead=0/bframes=6/b-adapt=2/b-pyramid/bframe-bias=0/rc-lookahead=20/lookahead-slices=6/scenecut=40/radl=0/no-intra-refresh/ctu=64/min-cu-size=8/no-rect/no-amp/max-tu-size=32/tu-inter-depth=1/tu-intra-depth=1/limit-tu=0/rdoq-level=0/dynamic-rd=0.00/no-ssim-rd/signhide/no-tskip/nr-intra=0/nr-inter=0/no-constrained-intra/strong-intra-smoothing/max-merge=2/limit-refs=3/no-limit-modes/me=1/subme=2/merange=57/temporal-mvp/weightp/no-weightb/no-analyze-src-pics/deblock=-2: -2/sao/no-sao-non-deblock/rd=3/no-early-skip/rskip/no-fast-intra/no-tskip-fast/no-cu-lossless/no-b-intra/no-splitrd-skip/rdpenalty=0/psy-rd=2.00/psy-rdoq=0.00/no-rd-refine/no-lossless/cbqpoffs=0/crqpoffs=0/rc=abr/bitrate=6000/qcomp=0.60/qpstep=4/stats-write=0/stats-read=0/ipratio=1.40/pbratio=1.30/aq-mode=1/aq-strength=1.00/cutree/zone-count=0/no-strict-cbr/qg-size=32/no-rc-grain/qpmax=69/qpmin=0/no-const-vbv/sar=1/overscan=0/videoformat=5/range=0/colorprim=1/transfer=1/colormatrix=1/chromaloc=0/display-window=0/max-cll=0, 0/min-luma=0/max-luma=1023/log2-max-poc-lsb=8/vui-timing-info/vui-hrd-info/slices=1/no-opt-qp-pps/no-opt-ref-list-length-pps/no-multi-pass-opt-rps/scenecut-bias=0.05/no-opt-cu-delta-qp/no-aq-motion/no-hdr/no-hdr-opt/no-dhdr10-opt/no-idr-recovery-sei/analysis-reuse-level=5/scale-factor=0/refine-intra=0/refine-inter=0/refine-mv=0/no-limit-sao/ctu-info=0/no-lowpass-dct/refine-mv-type=0/copy-pic=1/max-ausize-factor=1.0/no-dynamic-refine/no-single-sei
    Default : Да
    Forced : Нет
    Цветовой диапазон : Limited
    Основные цвета : BT.709
    Характеристики трансфера : BT.709
    Коэффициенты матрицы : BT.709
    Аудио #1
    Идентификатор : 2
    Формат : AC-3
    Формат/Информация : Audio Coding 3
    Идентификатор кодека : A_AC3
    Продолжительность : 1 ч. 21 м.
    Вид битрейта : Постоянный
    Битрейт : 640 Кбит/сек
    Каналы : 6 каналов
    Расположение каналов : Front: L C R, Side: L R, LFE
    Частота : 48, 0 КГц
    Частота кадров : 31, 250 кадров/сек (1536 SPF)
    Битовая глубина : 16 бит
    Метод сжатия : С потерями
    Размер потока : 372 Мбайт (9%)
    Заголовок : Русская
    Язык : Russian
    ServiceKind/String : Complete Main
    Default : Да
    Forced : Нет
    Аудио #2
    Идентификатор : 3
    Формат : AC-3
    Формат/Информация : Audio Coding 3
    Идентификатор кодека : A_AC3
    Продолжительность : 1 ч. 21 м.
    Вид битрейта : Постоянный
    Битрейт : 384 Кбит/сек
    Каналы : 6 каналов
    Расположение каналов : Front: L C R, Side: L R, LFE
    Частота : 48, 0 КГц
    Частота кадров : 31, 250 кадров/сек (1536 SPF)
    Битовая глубина : 16 бит
    Метод сжатия : С потерями
    Размер потока : 223 Мбайт (6%)
    Заголовок : Английская
    Язык : English
    ServiceKind/String : Complete Main
    Default : Нет
    Forced : Нет
    Текст #1
    Идентификатор : 4
    Формат : UTF-8
    Идентификатор кодека : S_TEXT/UTF8
    Идентификатор кодека/Информация : UTF-8 Plain Text
    Продолжительность : 1 ч. 17 м.
    Битрейт : 60 бит/сек
    ElementCount : 535
    Размер потока : 34, 4 Кбайт (0%)
    Заголовок : Русские
    Язык : Russian
    Default : Да
    Forced : Нет
    Текст #2
    Идентификатор : 5
    Формат : UTF-8
    Идентификатор кодека : S_TEXT/UTF8
    Идентификатор кодека/Информация : UTF-8 Plain Text
    Продолжительность : 1 ч. 17 м.
    Битрейт : 38 бит/сек
    ElementCount : 576
    Размер потока : 21, 8 Кбайт (0%)
    Заголовок : Английские
    Язык : English
    Default : Нет
    Forced : Нет

    Скриншоты для ознакомления


    Ледниковый период 2: Глобальное потепление /
    Ice Age: The Meltdown (2006) BDRip

    Производство: США
    Жанр: Мультфильм, фэнтези, комедия, приключения, семейный
    Режиссер: Карлос Салдана
    Роли озвучивали: Крис Уэдж, Джон Легуизамо, Рэй Романо, Денис Лири, Куин Латифа, Шон Уильям Скотт, Джош Пек

    Описание

    Саблезубый тигр Диего, мамонт Манфред, грызун Скрэт и ленивец Сид дожили до глобального потепления. С одной стороны, это круто — ледяная пустыня превратилась в настоящий аквапарк, где можно принимать теплые ванны и резвиться под сенью струй. С другой — не очень: стремительный паводок идет прямиком к их родной долине.

    Возраст: 6+ (зрителям, достигшим 6 лет)
    Рейтинг MPAA: PG (рекомендуется присутствие родителей)
    Релиз от: Мичман
    Продолжительность: 01: 30: 36
    Качество видео: BDRip
    Перевод: Дублированный
    Субтитры: Русские, английские
    Видео: HEVC/H.265, 1920х1036, ~4977 Kbps
    Аудио 1: AC3, 6 ch, 448 Kbps (Дубляж)
    Аудио 2: AC3, 6 ch, 448 Kbps (Оригинал)

    Общее
    Уникальный идентификатор : 27488108967720036404958080267006097705 (0x14AE04685E93086F3960FF3CDD85B929)
    Полное имя : J: ФИЛЬМЫЛедниковый период. (Пенталогия). 1080р. HEVC. Рип от МичманаЛедниковый период - 2. Глобальное потепление. 2006. 1080р. HEVC. Рип от Мичмана..mkv
    Формат : Matroska
    Версия формата : Version 4/Version 2
    Размер файла : 3, 72 Гбайт
    Продолжительность : 1 ч. 30 м.
    Общий поток : 5875 Кбит/сек
    Название фильма : Рип от Мичмана
    Дата кодирования : UTC 2018-05-24 07: 42: 12
    Программа кодирования : mkvmerge v21.0.0 (\'Tardigrades Will Inherit The Earth\') 64-bit
    Библиотека кодирования : libebml v1.3.5 + libmatroska v1.4.8
    Обложка : Yes
    Attachments : cover.jpg
    Видео
    Идентификатор : 1
    Формат : HEVC
    Формат/Информация : High Efficiency Video Coding
    Профиль формата : Main 10@L4@Main
    Идентификатор кодека : V_MPEGH/ISO/HEVC
    Продолжительность : 1 ч. 30 м.
    Битрейт : 4977 Кбит/сек
    Ширина : 1920 пикселей
    Высота : 1036 пикселей
    Соотношение сторон : 1, 85: 1
    Режим частоты кадров : Постоянный
    Частота кадров : 23, 976 (24000/1001) кадра/сек
    Цветовое пространство : YUV
    Субдискретизация насыщенности : 4: 2: 0
    Битовая глубина : 10 бит
    Бит/(Пиксели*Кадры) : 0.104
    Размер потока : 3, 15 Гбайт (85%)
    Библиотека кодирования : x265 2.7+336-07defe235cde: Windowsclang 7.0.064 bit 10bit
    Настройки программы : cpuid=1064959/frame-threads=9/numa-pools=8/wpp/no-pmode/no-pme/no-psnr/no-ssim/log-level=3/input-csp=1/input-res=1920x1036/interlace=0/total-frames=0/level-idc=0/high-tier=1/uhd-bd=0/ref=3/allow-non-conformance/no-repeat-t_heads/annexb/no-aud/no-hrd/info/hash=0/no-temporal-layers/open-gop/min-keyint=24/keyint=240/gop-lookahead=0/bframes=6/b-adapt=2/b-pyramid/bframe-bias=0/rc-lookahead=20/lookahead-slices=6/scenecut=40/radl=0/no-intra-refresh/ctu=64/min-cu-size=8/no-rect/no-amp/max-tu-size=32/tu-inter-depth=1/tu-intra-depth=1/limit-tu=0/rdoq-level=0/dynamic-rd=0.00/no-ssim-rd/signhide/no-tskip/nr-intra=0/nr-inter=0/no-constrained-intra/strong-intra-smoothing/max-merge=2/limit-refs=3/no-limit-modes/me=1/subme=2/merange=57/temporal-mvp/weightp/no-weightb/no-analyze-src-pics/deblock=-2: -2/sao/no-sao-non-deblock/rd=3/no-early-skip/rskip/no-fast-intra/no-tskip-fast/no-cu-lossless/no-b-intra/no-splitrd-skip/rdpenalty=0/psy-rd=2.00/psy-rdoq=0.00/no-rd-refine/no-lossless/cbqpoffs=0/crqpoffs=0/rc=abr/bitrate=5000/qcomp=0.60/qpstep=4/stats-write=0/stats-read=0/ipratio=1.40/pbratio=1.30/aq-mode=1/aq-strength=1.00/cutree/zone-count=0/no-strict-cbr/qg-size=32/no-rc-grain/qpmax=69/qpmin=0/no-const-vbv/sar=1/overscan=0/videoformat=5/range=0/colorprim=2/transfer=2/colormatrix=2/chromaloc=0/display-window=0/max-cll=0, 0/min-luma=0/max-luma=1023/log2-max-poc-lsb=8/vui-timing-info/vui-hrd-info/slices=1/no-opt-qp-pps/no-opt-ref-list-length-pps/no-multi-pass-opt-rps/scenecut-bias=0.05/no-opt-cu-delta-qp/no-aq-motion/no-hdr/no-hdr-opt/no-dhdr10-opt/no-idr-recovery-sei/analysis-reuse-level=5/scale-factor=0/refine-intra=0/refine-inter=0/refine-mv=0/no-limit-sao/ctu-info=0/no-lowpass-dct/refine-mv-type=0/copy-pic=1/max-ausize-factor=1.0/no-dynamic-refine/no-single-sei
    Язык : English
    Default : Да
    Forced : Нет
    Цветовой диапазон : Limited
    Аудио #1
    Идентификатор : 2
    Формат : AC-3
    Формат/Информация : Audio Coding 3
    Идентификатор кодека : A_AC3
    Продолжительность : 1 ч. 30 м.
    Вид битрейта : Постоянный
    Битрейт : 448 Кбит/сек
    Каналы : 6 каналов
    Расположение каналов : Front: L C R, Side: L R, LFE
    Частота : 48, 0 КГц
    Частота кадров : 31, 250 кадров/сек (1536 SPF)
    Битовая глубина : 16 бит
    Метод сжатия : С потерями
    Размер потока : 290 Мбайт (8%)
    Заголовок : Дубляж (AC3 448)
    Язык : Russian
    ServiceKind/String : Complete Main
    Default : Да
    Forced : Нет
    Аудио #2
    Идентификатор : 3
    Формат : AC-3
    Формат/Информация : Audio Coding 3
    Идентификатор кодека : A_AC3
    Продолжительность : 1 ч. 30 м.
    Вид битрейта : Постоянный
    Битрейт : 448 Кбит/сек
    Каналы : 6 каналов
    Расположение каналов : Front: L C R, Side: L R, LFE
    Частота : 48, 0 КГц
    Частота кадров : 31, 250 кадров/сек (1536 SPF)
    Битовая глубина : 16 бит
    Метод сжатия : С потерями
    Размер потока : 290 Мбайт (8%)
    Заголовок : Английская
    Язык : English
    ServiceKind/String : Complete Main
    Default : Нет
    Forced : Нет
    Текст #1
    Идентификатор : 4
    Формат : UTF-8
    Идентификатор кодека : S_TEXT/UTF8
    Идентификатор кодека/Информация : UTF-8 Plain Text
    Продолжительность : 1 ч. 20 м.
    Битрейт : 72 бит/сек
    ElementCount : 660
    Размер потока : 42, 9 Кбайт (0%)
    Заголовок : Русские
    Язык : Russian
    Default : Да
    Forced : Нет
    Текст #2
    Идентификатор : 5
    Формат : UTF-8
    Идентификатор кодека : S_TEXT/UTF8
    Идентификатор кодека/Информация : UTF-8 Plain Text
    Продолжительность : 1 ч. 20 м.
    Битрейт : 43 бит/сек
    ElementCount : 707
    Размер потока : 25, 5 Кбайт (0%)
    Заголовок : Английские
    Язык : English
    Default : Нет
    Forced : Нет

    Скриншоты для ознакомления


    Ледниковый период 3: Эра динозавров /
    Ice Age: Dawn of the Dinosaurs (2009) BDRip

    Производство: США
    Жанр: Мультфильм, фэнтези, комедия, приключения, семейный
    Режиссер: Карлос Салдана, Майк Тёрмайер
    Роли озвучивали: Рэй Романо, Джон Легуизамо, Денис Лири, Куин Латифа, Шонн Уильям Скотт, Джош Пек, Саймон Пегг, Крис Уэдж, Карен Дишер

    Описание

    К событиям Ледникового периода 3 жизнь главных героев мультфильма потерпела некоторые изменения. Мамонты Манфред и Элли ожидают появление на свет своего детёныша; саблезубый тигр Диего впал в раздумье о том, не стал ли он слишком мягкотелым в компании своих друзей; ленивец Сид, бредя желанием создать собственное племя, решился украсть несколько яиц динозавра.

    Возраст: 0+ (для любой зрительской аудитории)
    Рейтинг MPAA: PG (рекомендуется присутствие родителей)
    Релиз от: Мичман
    Продолжительность: 01: 34: 03
    Качество видео: BDRip
    Перевод: Дублированный
    Субтитры: Русские, английские
    Видео: HEVC/H.265, 1920х1036, ~4989 Kbps
    Аудио 1: AC3, 6 ch, 448 Kbps (Дубляж)
    Аудио 2: AC3, 6 ch, 448 Kbps (Оригинал)

    Общее
    Уникальный идентификатор : 231773638416606813497597536066426235587 (0xAE5DFAA352B4C57411E147F88D15EAC3)
    Полное имя : J: ФИЛЬМЫЛедниковый период. (Пенталогия). 1080р. HEVC. Рип от МичманаЛедниковый период - 3. Эра динозавров. 2009. 1080р. HEVC. Рип от Мичмана..mkv
    Формат : Matroska
    Версия формата : Version 4/Version 2
    Размер файла : 3, 87 Гбайт
    Продолжительность : 1 ч. 34 м.
    Общий поток : 5887 Кбит/сек
    Название фильма : Рип от Мичмана
    Дата кодирования : UTC 2018-05-24 12: 29: 34
    Программа кодирования : mkvmerge v21.0.0 (\'Tardigrades Will Inherit The Earth\') 64-bit
    Библиотека кодирования : libebml v1.3.5 + libmatroska v1.4.8
    Обложка : Yes
    Attachments : cover.jpg
    Видео
    Идентификатор : 1
    Формат : HEVC
    Формат/Информация : High Efficiency Video Coding
    Профиль формата : Main 10@L4@Main
    Идентификатор кодека : V_MPEGH/ISO/HEVC
    Продолжительность : 1 ч. 34 м.
    Битрейт : 4989 Кбит/сек
    Ширина : 1920 пикселей
    Высота : 1036 пикселей
    Соотношение сторон : 1, 85: 1
    Режим частоты кадров : Постоянный
    Частота кадров : 23, 976 (24000/1001) кадра/сек
    Цветовое пространство : YUV
    Субдискретизация насыщенности : 4: 2: 0
    Битовая глубина : 10 бит
    Бит/(Пиксели*Кадры) : 0.105
    Размер потока : 3, 28 Гбайт (85%)
    Библиотека кодирования : x265 2.7+336-07defe235cde: Windowsclang 7.0.064 bit 10bit
    Настройки программы : cpuid=1064959/frame-threads=9/numa-pools=8/wpp/no-pmode/no-pme/no-psnr/no-ssim/log-level=3/input-csp=1/input-res=1920x1036/interlace=0/total-frames=0/level-idc=0/high-tier=1/uhd-bd=0/ref=3/allow-non-conformance/no-repeat-t_heads/annexb/no-aud/no-hrd/info/hash=0/no-temporal-layers/open-gop/min-keyint=24/keyint=240/gop-lookahead=0/bframes=6/b-adapt=2/b-pyramid/bframe-bias=0/rc-lookahead=20/lookahead-slices=6/scenecut=40/radl=0/no-intra-refresh/ctu=64/min-cu-size=8/no-rect/no-amp/max-tu-size=32/tu-inter-depth=1/tu-intra-depth=1/limit-tu=0/rdoq-level=0/dynamic-rd=0.00/no-ssim-rd/signhide/no-tskip/nr-intra=0/nr-inter=0/no-constrained-intra/strong-intra-smoothing/max-merge=2/limit-refs=3/no-limit-modes/me=1/subme=2/merange=57/temporal-mvp/weightp/no-weightb/no-analyze-src-pics/deblock=-2: -2/sao/no-sao-non-deblock/rd=3/no-early-skip/rskip/no-fast-intra/no-tskip-fast/no-cu-lossless/no-b-intra/no-splitrd-skip/rdpenalty=0/psy-rd=2.00/psy-rdoq=0.00/no-rd-refine/no-lossless/cbqpoffs=0/crqpoffs=0/rc=abr/bitrate=5000/qcomp=0.60/qpstep=4/stats-write=0/stats-read=0/ipratio=1.40/pbratio=1.30/aq-mode=1/aq-strength=1.00/cutree/zone-count=0/no-strict-cbr/qg-size=32/no-rc-grain/qpmax=69/qpmin=0/no-const-vbv/sar=1/overscan=0/videoformat=5/range=0/colorprim=1/transfer=1/colormatrix=1/chromaloc=0/display-window=0/max-cll=0, 0/min-luma=0/max-luma=1023/log2-max-poc-lsb=8/vui-timing-info/vui-hrd-info/slices=1/no-opt-qp-pps/no-opt-ref-list-length-pps/no-multi-pass-opt-rps/scenecut-bias=0.05/no-opt-cu-delta-qp/no-aq-motion/no-hdr/no-hdr-opt/no-dhdr10-opt/no-idr-recovery-sei/analysis-reuse-level=5/scale-factor=0/refine-intra=0/refine-inter=0/refine-mv=0/no-limit-sao/ctu-info=0/no-lowpass-dct/refine-mv-type=0/copy-pic=1/max-ausize-factor=1.0/no-dynamic-refine/no-single-sei
    Default : Да
    Forced : Нет
    Цветовой диапазон : Limited
    Основные цвета : BT.709
    Характеристики трансфера : BT.709
    Коэффициенты матрицы : BT.709
    Аудио #1
    Идентификатор : 2
    Формат : AC-3
    Формат/Информация : Audio Coding 3
    Идентификатор кодека : A_AC3
    Продолжительность : 1 ч. 34 м.
    Вид битрейта : Постоянный
    Битрейт : 448 Кбит/сек
    Каналы : 6 каналов
    Расположение каналов : Front: L C R, Side: L R, LFE
    Частота : 48, 0 КГц
    Частота кадров : 31, 250 кадров/сек (1536 SPF)
    Битовая глубина : 16 бит
    Метод сжатия : С потерями
    Размер потока : 301 Мбайт (8%)
    Заголовок : Русская
    Язык : Russian
    ServiceKind/String : Complete Main
    Default : Да
    Forced : Нет
    Аудио #2
    Идентификатор : 3
    Формат : AC-3
    Формат/Информация : Audio Coding 3
    Идентификатор кодека : A_AC3
    Продолжительность : 1 ч. 34 м.
    Вид битрейта : Постоянный
    Битрейт : 448 Кбит/сек
    Каналы : 6 каналов
    Расположение каналов : Front: L C R, Side: L R, LFE
    Частота : 48, 0 КГц
    Частота кадров : 31, 250 кадров/сек (1536 SPF)
    Битовая глубина : 16 бит
    Метод сжатия : С потерями
    Размер потока : 301 Мбайт (8%)
    Заголовок : Английская
    Язык : English
    ServiceKind/String : Complete Main
    Default : Нет
    Forced : Нет
    Текст #1
    Идентификатор : 4
    Формат : UTF-8
    Идентификатор кодека : S_TEXT/UTF8
    Идентификатор кодека/Информация : UTF-8 Plain Text
    Продолжительность : 1 ч. 20 м.
    Битрейт : 61 бит/сек
    ElementCount : 852
    Размер потока : 36, 6 Кбайт (0%)
    Заголовок : Русские
    Язык : Russian
    Default : Да
    Forced : Нет
    Текст #2
    Идентификатор : 5
    Формат : UTF-8
    Идентификатор кодека : S_TEXT/UTF8
    Идентификатор кодека/Информация : UTF-8 Plain Text
    Продолжительность : 1 ч. 20 м.
    Битрейт : 43 бит/сек
    ElementCount : 600
    Размер потока : 25, 7 Кбайт (0%)
    Заголовок : Английские
    Язык : English
    Default : Нет
    Forced : Нет

    Скриншоты для ознакомления


    Ледниковый период 4: Континентальный дрейф /
    Ice Age: Continental Drift (2012) BDRip

    Производство: США
    Жанр: Мультфильм, фэнтези, комедия, приключения, семейный
    Режиссер: Стив Мартино, Майк Тёрмайер
    Роли озвучивали: Рэй Романо, Джон Легуизамо, Денис Лири, Куин Латифа, Шон Уильям Скотт, Джош Пек, Крис Уэдж, Карен Дишер, Кики Палмер

    Описание

    После приключений под землей прошло семь лет. Случился дрейф континентов. Главные герои мультфильма, отделённые от стада, вынуждены использовать айсберг в качестве плота. Они пересекают океан и попадают в неизвестные им ранее земли с экзотическими животными и пиратами, враждебно настроенными к ним. Скрэту удаётся получить свой жёлудь, но он перемещается в новые для него земли.

    Возраст: 0+ (для любой зрительской аудитории)
    Рейтинг MPAA: PG (рекомендуется присутствие родителей)
    Релиз от: Мичман
    Продолжительность: 01: 27: 46
    Качество видео: BDRip
    Перевод: Дублированный
    Субтитры: Русские, английские
    Видео: HEVC/H.265, 1920х800, ~5467 Kbps
    Аудио 1: AC3, 6 ch, 448 Kbps (Дубляж)
    Аудио 2: AC3, 6 ch, 640 Kbps (Оригинал)

    Общее
    Уникальный идентификатор : 69387400838863385687439593201037969780 (0x343386FD63097B51417D3C4524878974)
    Полное имя : J: ФИЛЬМЫЛедниковый период. (Пенталогия). 1080р. HEVC. Рип от МичманаЛедниковый период - 4. Континентальный дрейф. 2012. 1080р. HEVC. Рип от Мичмана..mkv
    Формат : Matroska
    Версия формата : Version 4/Version 2
    Размер файла : 4, 02 Гбайт
    Продолжительность : 1 ч. 27 м.
    Общий поток : 6557 Кбит/сек
    Название фильма : Рип от Мичмана
    Дата кодирования : UTC 2018-05-25 05: 38: 19
    Программа кодирования : mkvmerge v21.0.0 (\'Tardigrades Will Inherit The Earth\') 64-bit
    Библиотека кодирования : libebml v1.3.5 + libmatroska v1.4.8
    Обложка : Yes
    Attachments : cover.jpg
    Видео
    Идентификатор : 1
    Формат : HEVC
    Формат/Информация : High Efficiency Video Coding
    Профиль формата : Main 10@L4@Main
    Идентификатор кодека : V_MPEGH/ISO/HEVC
    Продолжительность : 1 ч. 27 м.
    Битрейт : 5467 Кбит/сек
    Ширина : 1920 пикселей
    Высота : 800 пикселей
    Соотношение сторон : 2, 40: 1
    Режим частоты кадров : Постоянный
    Частота кадров : 23, 976 (24000/1001) кадра/сек
    Цветовое пространство : YUV
    Субдискретизация насыщенности : 4: 2: 0
    Битовая глубина : 10 бит
    Бит/(Пиксели*Кадры) : 0.148
    Размер потока : 3, 35 Гбайт (83%)
    Библиотека кодирования : x265 2.7+336-07defe235cde: Windowsclang 7.0.064 bit 10bit
    Настройки программы : cpuid=1064959/frame-threads=9/numa-pools=8/wpp/no-pmode/no-pme/no-psnr/no-ssim/log-level=3/input-csp=1/input-res=1920x800/interlace=0/total-frames=0/level-idc=0/high-tier=1/uhd-bd=0/ref=3/allow-non-conformance/no-repeat-t_heads/annexb/no-aud/no-hrd/info/hash=0/no-temporal-layers/open-gop/min-keyint=24/keyint=240/gop-lookahead=0/bframes=6/b-adapt=2/b-pyramid/bframe-bias=0/rc-lookahead=20/lookahead-slices=5/scenecut=40/radl=0/no-intra-refresh/ctu=64/min-cu-size=8/no-rect/no-amp/max-tu-size=32/tu-inter-depth=1/tu-intra-depth=1/limit-tu=0/rdoq-level=0/dynamic-rd=0.00/no-ssim-rd/signhide/no-tskip/nr-intra=0/nr-inter=0/no-constrained-intra/strong-intra-smoothing/max-merge=2/limit-refs=3/no-limit-modes/me=1/subme=2/merange=57/temporal-mvp/weightp/no-weightb/no-analyze-src-pics/deblock=-2: -2/sao/no-sao-non-deblock/rd=3/no-early-skip/rskip/no-fast-intra/no-tskip-fast/no-cu-lossless/no-b-intra/no-splitrd-skip/rdpenalty=0/psy-rd=2.00/psy-rdoq=0.00/no-rd-refine/no-lossless/cbqpoffs=0/crqpoffs=0/rc=abr/bitrate=5500/qcomp=0.60/qpstep=4/stats-write=0/stats-read=0/ipratio=1.40/pbratio=1.30/aq-mode=1/aq-strength=1.00/cutree/zone-count=0/no-strict-cbr/qg-size=32/no-rc-grain/qpmax=69/qpmin=0/no-const-vbv/sar=1/overscan=0/videoformat=5/range=0/colorprim=2/transfer=2/colormatrix=2/chromaloc=0/display-window=0/max-cll=0, 0/min-luma=0/max-luma=1023/log2-max-poc-lsb=8/vui-timing-info/vui-hrd-info/slices=1/no-opt-qp-pps/no-opt-ref-list-length-pps/no-multi-pass-opt-rps/scenecut-bias=0.05/no-opt-cu-delta-qp/no-aq-motion/no-hdr/no-hdr-opt/no-dhdr10-opt/no-idr-recovery-sei/analysis-reuse-level=5/scale-factor=0/refine-intra=0/refine-inter=0/refine-mv=0/no-limit-sao/ctu-info=0/no-lowpass-dct/refine-mv-type=0/copy-pic=1/max-ausize-factor=1.0/no-dynamic-refine/no-single-sei
    Язык : Russian
    Default : Да
    Forced : Нет
    Аудио #1
    Идентификатор : 2
    Формат : AC-3
    Формат/Информация : Audio Coding 3
    Идентификатор кодека : A_AC3
    Продолжительность : 1 ч. 27 м.
    Вид битрейта : Постоянный
    Битрейт : 448 Кбит/сек
    Каналы : 6 каналов
    Расположение каналов : Front: L C R, Side: L R, LFE
    Частота : 48, 0 КГц
    Частота кадров : 31, 250 кадров/сек (1536 SPF)
    Битовая глубина : 16 бит
    Метод сжатия : С потерями
    Размер потока : 281 Мбайт (7%)
    Заголовок : Русская
    Язык : Russian
    ServiceKind/String : Complete Main
    Default : Да
    Forced : Нет
    Аудио #2
    Идентификатор : 3
    Формат : AC-3
    Формат/Информация : Audio Coding 3
    Идентификатор кодека : A_AC3
    Продолжительность : 1 ч. 27 м.
    Вид битрейта : Постоянный
    Битрейт : 640 Кбит/сек
    Каналы : 6 каналов
    Расположение каналов : Front: L C R, Side: L R, LFE
    Частота : 48, 0 КГц
    Частота кадров : 31, 250 кадров/сек (1536 SPF)
    Битовая глубина : 16 бит
    Метод сжатия : С потерями
    Задержка видео : 800 мс.
    Размер потока : 402 Мбайт (10%)
    Заголовок : Английская
    Язык : English
    ServiceKind/String : Complete Main
    Default : Нет
    Forced : Нет
    Текст #1
    Идентификатор : 4
    Формат : UTF-8
    Идентификатор кодека : S_TEXT/UTF8
    Идентификатор кодека/Информация : UTF-8 Plain Text
    Продолжительность : 1 ч. 26 м.
    Битрейт : 71 бит/сек
    ElementCount : 1149
    Размер потока : 44, 9 Кбайт (0%)
    Заголовок : Русские
    Язык : Russian
    Default : Да
    Forced : Нет
    Текст #2
    Идентификатор : 5
    Формат : UTF-8
    Идентификатор кодека : S_TEXT/UTF8
    Идентификатор кодека/Информация : UTF-8 Plain Text
    Продолжительность : 1 ч. 25 м.
    Битрейт : 51 бит/сек
    ElementCount : 1151
    Размер потока : 32, 3 Кбайт (0%)
    Заголовок : Английские
    Язык : English
    Default : Нет
    Forced : Нет

    Скриншоты для ознакомления


    Ледниковый период: Столкновение неизбежно /
    Ice Age: Collision Course (2016) BDRip

    Производство: США
    Жанр: Мультфильм, фэнтези, комедия, приключения, семейный
    Режиссер: Майк Тёрмайер, Гален Т. Чу
    Роли озвучивали: Рэй Романо, Джон Легуизамо, Денис Лири, Куин Латифа, Шон Уильям Скотт, Джош Пек, Кики Палмер, Ванда Сайкс, Дженнифер Лопес, Саймон Пегг, Джесси Тайлер Фергюсон

    Описание

    Отчаянная погоня за неуловимым желудем катапультирует Скрата прямо в космос, где он случайно запускает целую серию космических событий. Именно они изменят весь мир Ледникового периода и станут реальной угрозой для него. Чтобы спастись, Сид, Мэнни, Диего и остальные звери должны покинуть свои дома, отправиться в забавное и захватывающее приключение в экзотические новые земли и встретиться со множеством красочных новых персонажей.

    Возраст: 6+ (зрителям, достигшим 6 лет)
    Рейтинг MPAA: PG (рекомендуется присутствие родителей)
    Релиз от: Мичман
    Продолжительность: 01: 34: 32
    Качество видео: BDRip
    Перевод: Дублированный
    Субтитры: Русские, английские
    Видео: HEVC/H.265, 1920х800, ~4986 Kbps
    Аудио 1: AC3, 6 ch, 448 Kbps (Дубляж)
    Аудио 2: AC3, 6 ch, 384 Kbps (Оригинал)

    Общее
    Уникальный идентификатор : 183970800327642013312161421731457956947 (0x8A677CC14A89AA3FEC64D84C0C947C53)
    Полное имя : J: ФИЛЬМЫЛедниковый период. (Пенталогия). 1080р. HEVC. Рип от МичманаЛедниковый период. Столкновение неизбежно. 2016. 1080р. HEVC. Рип от Мичмана..mkv
    Формат : Matroska
    Версия формата : Version 4/Version 2
    Размер файла : 3, 84 Гбайт
    Продолжительность : 1 ч. 34 м.
    Общий поток : 5820 Кбит/сек
    Название фильма : Рип от Мичмана
    Дата кодирования : UTC 2018-05-24 18: 43: 08
    Программа кодирования : mkvmerge v21.0.0 (\'Tardigrades Will Inherit The Earth\') 64-bit
    Библиотека кодирования : libebml v1.3.5 + libmatroska v1.4.8
    Обложка : Yes
    Attachments : cover.jpg
    Видео
    Идентификатор : 1
    Формат : HEVC
    Формат/Информация : High Efficiency Video Coding
    Профиль формата : Main 10@L4@Main
    Идентификатор кодека : V_MPEGH/ISO/HEVC
    Продолжительность : 1 ч. 34 м.
    Битрейт : 4986 Кбит/сек
    Ширина : 1920 пикселей
    Высота : 800 пикселей
    Соотношение сторон : 2, 40: 1
    Режим частоты кадров : Постоянный
    Частота кадров : 23, 976 (24000/1001) кадра/сек
    Цветовое пространство : YUV
    Субдискретизация насыщенности : 4: 2: 0
    Битовая глубина : 10 бит
    Бит/(Пиксели*Кадры) : 0.135
    Размер потока : 3, 29 Гбайт (86%)
    Библиотека кодирования : x265 2.7+336-07defe235cde: Windowsclang 7.0.064 bit 10bit
    Настройки программы : cpuid=1064959/frame-threads=9/numa-pools=8/wpp/no-pmode/no-pme/no-psnr/no-ssim/log-level=3/input-csp=1/input-res=1920x800/interlace=0/total-frames=0/level-idc=0/high-tier=1/uhd-bd=0/ref=3/allow-non-conformance/no-repeat-t_heads/annexb/no-aud/no-hrd/info/hash=0/no-temporal-layers/open-gop/min-keyint=10/keyint=240/gop-lookahead=0/bframes=6/b-adapt=2/b-pyramid/bframe-bias=0/rc-lookahead=20/lookahead-slices=5/scenecut=40/radl=0/no-intra-refresh/ctu=64/min-cu-size=8/no-rect/no-amp/max-tu-size=32/tu-inter-depth=1/tu-intra-depth=1/limit-tu=0/rdoq-level=0/dynamic-rd=0.00/no-ssim-rd/signhide/no-tskip/nr-intra=0/nr-inter=0/no-constrained-intra/strong-intra-smoothing/max-merge=2/limit-refs=3/no-limit-modes/me=1/subme=2/merange=57/temporal-mvp/weightp/no-weightb/no-analyze-src-pics/deblock=-2: -2/sao/no-sao-non-deblock/rd=3/no-early-skip/rskip/no-fast-intra/no-tskip-fast/no-cu-lossless/no-b-intra/no-splitrd-skip/rdpenalty=0/psy-rd=2.00/psy-rdoq=0.00/no-rd-refine/no-lossless/cbqpoffs=0/crqpoffs=0/rc=abr/bitrate=5000/qcomp=0.60/qpstep=4/stats-write=0/stats-read=0/ipratio=1.40/pbratio=1.30/aq-mode=1/aq-strength=1.00/cutree/zone-count=0/no-strict-cbr/qg-size=32/no-rc-grain/qpmax=69/qpmin=0/no-const-vbv/sar=1/overscan=0/videoformat=5/range=0/colorprim=2/transfer=2/colormatrix=2/chromaloc=0/display-window=0/max-cll=0, 0/min-luma=0/max-luma=1023/log2-max-poc-lsb=8/vui-timing-info/vui-hrd-info/slices=1/no-opt-qp-pps/no-opt-ref-list-length-pps/no-multi-pass-opt-rps/scenecut-bias=0.05/no-opt-cu-delta-qp/no-aq-motion/no-hdr/no-hdr-opt/no-dhdr10-opt/no-idr-recovery-sei/analysis-reuse-level=5/scale-factor=0/refine-intra=0/refine-inter=0/refine-mv=0/no-limit-sao/ctu-info=0/no-lowpass-dct/refine-mv-type=0/copy-pic=1/max-ausize-factor=1.0/no-dynamic-refine/no-single-sei
    Язык : English
    Default : Да
    Forced : Нет
    Аудио #1
    Идентификатор : 2
    Формат : AC-3
    Формат/Информация : Audio Coding 3
    Идентификатор кодека : A_AC3
    Продолжительность : 1 ч. 34 м.
    Вид битрейта : Постоянный
    Битрейт : 448 Кбит/сек
    Каналы : 6 каналов
    Расположение каналов : Front: L C R, Side: L R, LFE
    Частота : 48, 0 КГц
    Частота кадров : 31, 250 кадров/сек (1536 SPF)
    Битовая глубина : 16 бит
    Метод сжатия : С потерями
    Размер потока : 303 Мбайт (8%)
    Заголовок : Русская
    Язык : Russian
    ServiceKind/String : Complete Main
    Default : Да
    Forced : Нет
    Аудио #2
    Идентификатор : 3
    Формат : AC-3
    Формат/Информация : Audio Coding 3
    Идентификатор кодека : A_AC3
    Продолжительность : 1 ч. 34 м.
    Вид битрейта : Постоянный
    Битрейт : 384 Кбит/сек
    Каналы : 6 каналов
    Расположение каналов : Front: L C R, Side: L R, LFE
    Частота : 48, 0 КГц
    Частота кадров : 31, 250 кадров/сек (1536 SPF)
    Битовая глубина : 16 бит
    Метод сжатия : С потерями
    Размер потока : 259 Мбайт (7%)
    Заголовок : Английская
    Язык : English
    ServiceKind/String : Complete Main
    Default : Нет
    Forced : Нет
    Текст #1
    Идентификатор : 4
    Формат : UTF-8
    Идентификатор кодека : S_TEXT/UTF8
    Идентификатор кодека/Информация : UTF-8 Plain Text
    Продолжительность : 1 ч. 23 м.
    Битрейт : 99 бит/сек
    ElementCount : 1221
    Размер потока : 61, 1 Кбайт (0%)
    Заголовок : Русские
    Язык : Russian
    Default : Да
    Forced : Нет
    Текст #2
    Идентификатор : 5
    Формат : UTF-8
    Идентификатор кодека : S_TEXT/UTF8
    Идентификатор кодека/Информация : UTF-8 Plain Text
    Продолжительность : 1 ч. 23 м.
    Битрейт : 60 бит/сек
    ElementCount : 1221
    Размер потока : 36, 9 Кбайт (0%)
    Заголовок : Английские
    Язык : English
    Default : Нет
    Forced : Нет

    Скриншоты для ознакомления



    Скриншоты для ознакомления



    Все одноименные релизы в Клубе
    Время раздачи: с 8: 00 до 22: 00 (до появления первых 3-5 скачавших)


    Онлайн видео Ледниковый период: Пенталогия



    Ледниковый период: Пенталогия/Ice Age: The Pentalogy (2002/2006/2009/2012/2016) BDRip [H.265/1080p-LQ] [10-bit]
    Рейтинг →
     (голосов: 1, оценка 3/5, голосовать можно 1 раз )

    Другие торренты по теме:

  • Ледниковый период. Выпуск №4 (2014.09.27) SATRip
  • Ледниковый период. Выпуск №6 (2014.10.11) SATRip скачать через торрент бесплатно
  • Ледниковый период. Выпуск №7 (2014.10.18) SATRip
  • Ледниковый период. Выпуск №8 (2014.10.25) SATRip скачать через торрент бесплатно
  • Ледниковый период. Выпуск №9 (2014.11.01) SATRip скачать через торрент бесплатно
  • Ледниковый период. Выпуск №10 (2014.11.08) SATRip скачать через торрент бесплатно
  • Ледниковый период. Выпуск №11 (2014.11.15) SATRip
  • Ледниковый период. Выпуск №13 (2014.11.29) SATRip


    • Комментарии (0):

      Информация

      Информация

        Посетители, находящиеся в группе Гости, не могут оставлять комментарии в данной новости.

        ↓ Меню




        ↓ Опрос

        Вы добавили сайт в закладки?
        Да
        Нет


        Top 10 за месяц (Мультфильмы)