.
Авторизация | Регистрация
Хочешь лучшие торренты? Добавь свой email!
Добавить

Торрент скачать бесплатно

  • support: webmaster@btracker.org
» » Мясорубка (Гнилой город) / City of Rott (2006) DVDRip торрент скачать бесплатно


    Мясорубка (Гнилой город) / City of Rott (2006) DVDRip торрент скачать бесплатно

    Опубликовал: Админ | Дата: 30-05-2018, 05:00 | .torrent скачали: 0

    Мясорубка (Гнилой город) / City of Rott (2006) DVDRipПроизводство: США, Blackarro Productions
    Жанр: Ужасы, боевик, приключения, комедия
    Режиссер: Фрэнк Судол

    Актеры
    Фрэнк Судол

    Описание

    Один, без оружия, сходящий с ума старик по имени Фред пойман в ловушку в городе наводненным легионами зомби. Ведомые паразитными червями орды гниющих зомби бродят по городу, и ищут живую плоть, чтобы пировать...

    Релиз от: Невьянск
    Продолжительность: 01: 16: 57
    Качество видео: DVDRip
    Перевод: Профессиональный (двухголосый, закадровый), авторский (одноголосый, закадровый)
    Видео: XviD, 720x528, (4: 3), 23.976 fps, 2119 Kbps
    Аудио #1: AC-3, 48.0 KHz, 2 ch, 192 Kbps, CBR | Двухголосый (Немикрон)
    Аудио #2: AC-3, 48.0 KHz, 6 ch, 384 Kbps, CBR | Авторский (Гранкин)
    Аудио #3: AC-3, 48.0 KHz, 2 ch, 192 Kbps, CBR | Английский
    General
    Complete name : C: UsersushenDesktopТоррентCity of Rott (2006).avi
    Format : AVI
    Format/Info : Audio Video Interleave
    File size : 1.56 GiB
    Duration : 1 h 16 min
    Overall bit rate : 2 907 kb/s
    Writing application : VirtualDubMod 1.5.10.2 (build 2540/release)
    Writing library : VirtualDubMod build 2540/release
    Video
    ID : 0
    Format : MPEG-4 Visual
    Format profile : Advanced Simple@L5
    Format settings : BVOP1/Custom Matrix
    Format settings, BVOP : 1
    Format settings, QPel : No
    Format settings, GMC : No warppoints
    Format settings, Matrix : Custom
    Codec ID : XVID
    Codec ID/Hint : XviD
    Duration : 1 h 16 min
    Bit rate : 2 120 kb/s
    Width : 720 pixels
    Height : 528 pixels
    Display aspect ratio : 4: 3
    Frame rate : 23.976 (24000/1001) FPS
    Color space : YUV
    Chroma subsampling : 4: 2: 0
    Bit depth : 8 bits
    Scan type : Progressive
    Compression mode : Lossy
    Bits/(Pixel*Frame) : 0.233
    Stream size : 1.14 GiB (73%)
    Writing library : XviD 1.2.0.dev47 (UTC 2006-11-01)
    Audio #1
    ID : 1
    Format : AC-3
    Format/Info : Audio Coding 3
    Codec ID : 2000
    Duration : 1 h 16 min
    Bit rate mode : Constant
    Bit rate : 192 kb/s
    Channel(s) : 2 channels
    Channel positions : Front: L R
    Sampling rate : 44.1 kHz
    Frame rate : 28.711 FPS (1536 SPF)
    Bit depth : 16 bits
    Compression mode : Lossy
    Stream size : 106 MiB (7%)
    Alignment : Split accross interleaves
    Interleave, duration : 42 ms (1.00 video frame)
    Interleave, preload duration : 500 ms
    Service kind : Complete Main
    Audio #2
    ID : 2
    Format : AC-3
    Format/Info : Audio Coding 3
    Codec ID : 2000
    Duration : 1 h 16 min
    Bit rate mode : Constant
    Bit rate : 384 kb/s
    Channel(s) : 6 channels
    Channel positions : Front: L C R, Side: L R, LFE
    Sampling rate : 48.0 kHz
    Frame rate : 31.250 FPS (1536 SPF)
    Bit depth : 16 bits
    Compression mode : Lossy
    Stream size : 211 MiB (13%)
    Alignment : Split accross interleaves
    Interleave, duration : 42 ms (1.00 video frame)
    Interleave, preload duration : 500 ms
    Service kind : Complete Main
    Audio #3
    ID : 3
    Format : AC-3
    Format/Info : Audio Coding 3
    Codec ID : 2000
    Duration : 1 h 16 min
    Bit rate mode : Constant
    Bit rate : 192 kb/s
    Channel(s) : 2 channels
    Channel positions : Front: L R
    Sampling rate : 48.0 kHz
    Frame rate : 31.250 FPS (1536 SPF)
    Bit depth : 16 bits
    Compression mode : Lossy
    Stream size : 106 MiB (7%)
    Alignment : Split accross interleaves
    Interleave, duration : 42 ms (1.00 video frame)
    Interleave, preload duration : 500 ms
    Service kind : Complete Main

    Скриншоты для ознакомления



    Все одноименные релизы в Клубе
    Время раздачи: с 12: 00 до 20: 00 (Москва)


    Онлайн видео Мясорубка (Гнилой город)



    Мясорубка (Гнилой город)/City of Rott (2006) DVDRip
    Рейтинг →
     (голосов: 1, оценка 3/5, голосовать можно 1 раз )

    Другие торренты по теме:

  • Борис Горбачевский | Ржевская мясорубка. Выжить в аду (2016) [MP3]


    • Комментарии (0):

      Информация

      Информация

        Посетители, находящиеся в группе Гости, не могут оставлять комментарии в данной новости.

        ↓ Меню




        ↓ Опрос

        Вы добавили сайт в закладки?
        Да
        Нет


        Top 10 за месяц (Мультфильмы)