.
Авторизация | Регистрация
Хочешь лучшие торренты? Добавь свой email!
Добавить

Торрент скачать бесплатно

  • support: webmaster@btracker.org
» » Мертвая ярость / Dead Fury (2008) DVDRip торрент скачать бесплатно


    Мертвая ярость / Dead Fury (2008) DVDRip торрент скачать бесплатно

    Опубликовал: Админ | Дата: 30-05-2018, 05:00 | .torrent скачали: 0

    Мертвая ярость / Dead Fury (2008) DVDRipПроизводство: США, Blackarro Productions
    Жанр: Ужасы, боевик, приключения, комедия
    Режиссер: Фрэнк Судол

    Актеры
    Фрэнк Судол

    Описание

    Группа охотников отправляется в мистический лес, не подозревая о том, что их там ждёт. Вскоре один из группы заражается непонятной болезнью и превращается в ходячего мертвеца.

    Продолжительность: 01: 22: 03
    Качество видео: DVDRip
    Перевод: Профессиональный (многоголосый, закадровый)
    Видео: XviD, 720x544, (4: 3), 23.976 fps, 1764 Kbps
    Аудио #1: AC-3, 48.0 KHz, 6 ch, 320 Kbps, CBR | Многоголосый
    Аудио #2: AC-3, 48.0 KHz, 2 ch, 320 Kbps, CBR | Многоголосый
    General
    Complete name : C: UsersushenРаздачиDead Fury (2008).avi
    Format : AVI
    Format/Info : Audio Video Interleave
    Format profile : OpenDML
    Format settings : rec
    File size : 1.38 GiB
    Duration : 1 h 22 min
    Overall bit rate : 2 411 kb/s
    Writing application : AVI-Mux GUI 1.17.8.3, Feb 16 201019: 42: 50
    Video
    ID : 0
    Format : MPEG-4 Visual
    Format profile : Advanced Simple@L5
    Format settings, BVOP : No
    Format settings, QPel : No
    Format settings, GMC : No warppoints
    Format settings, Matrix : Default (H.263)
    Codec ID : XVID
    Codec ID/Hint : XviD
    Duration : 1 h 22 min
    Bit rate : 1 764 kb/s
    Width : 720 pixels
    Height : 544 pixels
    Display aspect ratio : 4: 3
    Frame rate : 23.976 (24000/1001) FPS
    Color space : YUV
    Chroma subsampling : 4: 2: 0
    Bit depth : 8 bits
    Scan type : Progressive
    Compression mode : Lossy
    Bits/(Pixel*Frame) : 0.188
    Stream size : 1.01 GiB (73%)
    Writing library : XviD 62
    Audio #1
    ID : 1
    Format : AC-3
    Format/Info : Audio Coding 3
    Codec ID : 2000
    Duration : 1 h 22 min
    Bit rate mode : Constant
    Bit rate : 320 kb/s
    Channel(s) : 6 channels
    Channel positions : Front: L C R, Side: L R, LFE
    Sampling rate : 48.0 kHz
    Frame rate : 31.250 FPS (1536 SPF)
    Bit depth : 16 bits
    Compression mode : Lossy
    Stream size : 188 MiB (13%)
    Alignment : Aligned on interleaves
    Interleave, duration : 64 ms (1.53 video frames)
    Interleave, preload duration : 192 ms
    Title : Rus_6 ch
    Service kind : Complete Main
    Audio #2
    ID : 2
    Format : AC-3
    Format/Info : Audio Coding 3
    Codec ID : 2000
    Duration : 1 h 22 min
    Bit rate mode : Constant
    Bit rate : 320 kb/s
    Channel(s) : 2 channels
    Channel positions : Front: L R
    Sampling rate : 48.0 kHz
    Frame rate : 31.250 FPS (1536 SPF)
    Bit depth : 16 bits
    Compression mode : Lossy
    Stream size : 188 MiB (13%)
    Alignment : Aligned on interleaves
    Interleave, duration : 64 ms (1.53 video frames)
    Interleave, preload duration : 192 ms
    Title : Rus_2 ch
    Service kind : Complete Main

    Скриншоты для ознакомления



    Все одноименные релизы в Клубе
    Время раздачи: с 12: 00 до 20: 00 (Москва)


    Онлайн видео Мертвая ярость



    Мертвая ярость/Dead Fury (2008) DVDRip
    Рейтинг →
     (голосов: 1, оценка 4/5, голосовать можно 1 раз )

    Другие торренты по теме:

  • Мертвая зона / The Dead Zone (1983) BDRemux [1080p]
  • Олег Синицын | Скалолазка и мертвая вода (2014) [MP3] скачать через торрент бесплатно
  • Мертвая зона / The Dead Zone (1983) BDRip [H.264]
  • Джей Арс | Вещает мертвая голова [Сборник. Авторский релиз] (2014) [MP3] скачать через торрент бесплатно
  • Мертвая тишина / Dead Silence (2006) BDRip [1080p]
  • Мертвая зона / The Dead Zone (1983) BDRip [H.264 / 720p] скачать через торрент бесплатно
  • Голая... если мертвая / Nude... si muore (1968) DVDRip [VO] скачать через торрент бесплатно
  • Мертвая тишина / Dead Silence (2007) BDRip [H.264 / 720p] скачать через торрент бесплатно


    • Комментарии (0):

      Информация

      Информация

        Посетители, находящиеся в группе Гости, не могут оставлять комментарии в данной новости.

        ↓ Меню




        ↓ Опрос

        Вы добавили сайт в закладки?
        Да
        Нет


        Top 10 за месяц (Мультфильмы)