.
Авторизация | Регистрация
Хочешь лучшие торренты? Добавь свой email!
Добавить

Торрент скачать бесплатно

  • support: webmaster@btracker.org
» » Дикие предки / Early Man (2018) BDRip [H.264 / 1080p] торрент скачать бесплатно


    Дикие предки / Early Man (2018) BDRip [H.264 / 1080p] торрент скачать бесплатно

    Опубликовал: Админ | Дата: 28-05-2018, 05:00 | .torrent скачали: 0

    Дикие предки / Early Man (2018) BDRip [H.264 / 1080p]Производство: Великобритания, Франция/Aardman Animations, Amazon Prime Instant Video, BFI\'s Film Found
    Жанр: Приключения, Комедия, Кукольный, Компьютерная анимация
    Режиссер: Ник Парк
    Персонажи: Эдди Редмэйн, Том Хиддлстон, Мэйси Уильямс, Тимоти Сполл, Ричард Айоади, Марк Уильямс, Мириам Маргулис, Роб Брайдон, Ник Парк, Джонни Вегас, ..

    Описание

    Каменный век и даже более поздние цивилизации — всё равно дикие предки, но как же они были похожи на нас. У них тоже было слишком много родственников, а мужчины боролись за любимую женщину. Они тоже обожали драгоценности, играли в кожаный мяч, и каждый стремился стать первым…

    Возраст: 6+ (зрителям, достигшим 6 лет)
    Рейтинг MPAA: PG (рекомендуется присутствие родителей)
    Дата мировой премьеры: 20 января 2018
    Дата российской премьеры: 22 марта 2018
    Дата выхода DVD/Blu-ray релиза: 22 мая 2018
    Продолжительность: 01: 28: 40
    Качество видео: BDRip 1080p
    Перевод: Дублированный
    Язык озвучки: Русский, Английский
    Субтитры: Английские
    Реклама: Отсутствует
    Видео: AVC/H.264, 1920x1040, ~6 415 Kbps
    Аудио 1: AC3, 6 ch, 448 Kbps (Русский)
    Аудио 2: AC3, 6 ch, 640 Kbps (Английский)

    Общее
    Уникальный идентификатор : 230580211705996880014835085711531273256 (0xAD78222884E54D37BF4FDF64324B6C28)
    Полное имя : D: UpLoadEarly.Man.2018.1080p.mkv
    Формат : Matroska
    Версия формата : Version 4/Version 2
    Размер файла : 4, 65 Гбайт
    Продолжительность : 1 ч. 28 м.
    Общий поток : 7503 Кбит/сек
    Дата кодирования : UTC 2018-05-27 16: 49: 33
    Программа кодирования : mkvmerge v18.0.0 (\'Apricity\') 64-bit
    Библиотека кодирования : libebml v1.3.5 + libmatroska v1.4.8
    Видео
    Идентификатор : 1
    Формат : AVC
    Формат/Информация : Advanced Video Codec
    Профиль формата : High@L4.1
    Настройки формата : CABAC/4 Ref Frames
    Параметр CABAC формата : Да
    Параметр RefFrames формата : 4 кадра
    Идентификатор кодека : V_MPEG4/ISO/AVC
    Продолжительность : 1 ч. 28 м.
    Битрейт : 6415 Кбит/сек
    Ширина : 1920 пикселей
    Высота : 1040 пикселей
    Соотношение сторон : 1, 85: 1
    Режим частоты кадров : Постоянный
    Частота кадров : 23, 976 (24000/1001) кадра/сек
    Цветовое пространство : YUV
    Субдискретизация насыщенности : 4: 2: 0
    Битовая глубина : 8 бит
    Тип развёртки : Прогрессивная
    Бит/(Пиксели*Кадры) : 0.134
    Размер потока : 3, 97 Гбайт (85%)
    Библиотека кодирования : x264 core 155 r2901 7d0ff22
    Настройки программы : cabac=1/ref=4/deblock=1: 0: 0/analyse=0x3: 0x133/me=umh/subme=7/psy=1/psy_rd=1.00: 0.00/mixed_ref=1/me_range=16/chroma_me=1/trellis=1/8x8dct=1/cqm=0/deadzone=21, 11/fast_pskip=0/chroma_qp_offset=-2/threads=24/lookahead_threads=4/sliced_threads=0/nr=0/decimate=1/interlaced=0/bluray_compat=0/constrained_intra=0/bframes=3/b_pyramid=2/b_adapt=1/b_bias=0/direct=1/weightb=1/open_gop=0/weightp=2/keyint=250/keyint_min=23/scenecut=40/intra_refresh=0/rc_lookahead=40/rc=2pass/mbtree=1/bitrate=6415/ratetol=1.0/qcomp=0.60/qpmin=0/qpmax=69/qpstep=4/cplxblur=20.0/qblur=0.5/ip_ratio=1.40/aq=1: 1.00
    Язык : English
    Default : Да
    Forced : Нет
    Аудио #1
    Идентификатор : 2
    Формат : AC-3
    Формат/Информация : Audio Coding 3
    Идентификатор кодека : A_AC3
    Продолжительность : 1 ч. 28 м.
    Вид битрейта : Постоянный
    Битрейт : 448 Кбит/сек
    Каналы : 6 каналов
    Расположение каналов : Front: L C R, Side: L R, LFE
    Частота : 48, 0 КГц
    Частота кадров : 31, 250 кадров/сек (1536 SPF)
    Битовая глубина : 16 бит
    Метод сжатия : С потерями
    Размер потока : 284 Мбайт (6%)
    Язык : Russian
    ServiceKind/String : Complete Main
    Default : Да
    Forced : Нет
    Аудио #2
    Идентификатор : 3
    Формат : AC-3
    Формат/Информация : Audio Coding 3
    Идентификатор кодека : A_AC3
    Продолжительность : 1 ч. 28 м.
    Вид битрейта : Постоянный
    Битрейт : 640 Кбит/сек
    Каналы : 6 каналов
    Расположение каналов : Front: L C R, Side: L R, LFE
    Частота : 48, 0 КГц
    Частота кадров : 31, 250 кадров/сек (1536 SPF)
    Битовая глубина : 16 бит
    Метод сжатия : С потерями
    Размер потока : 406 Мбайт (9%)
    Язык : English
    ServiceKind/String : Complete Main
    Default : Нет
    Forced : Нет

    Скриншоты для ознакомления



    Все одноименные релизы в Клубе
    Время раздачи: 24/7 (круглосуточно, до первых 10 раздающих)


    Онлайн видео Дикие предки



    Дикие предки/Early Man (2018) BDRip [H.264/1080p]
    Рейтинг →
     (голосов: 1, оценка 3/5, голосовать можно 1 раз )

    Другие торренты по теме:

  • Дикие предки / Early Man (2018) WEBRip [H.264 / 1080p-LQ] [EN / EN Sub]
  • Дикие предки / Early Man (2018) BDRip [H.264 / 1080p] [EN / EN Sub]
  • Дикие предки / Early Man (2018) AC3 5.1 [hand made]
  • Дикие предки / Early Man (2018) BDRip [H.264]
  • Дикие предки / Early Man (2018) BDRip [H.265 / 1080p-LQ] [10-bit]
  • Дикие предки / Early Man (2018) UHD BDRemux [H.265 / 2160p] [4K, HDR, 10-bit]
  • Дикие предки / Early Man (2018) UHD BDRemux [H.265 / 2160p] [4K, HDR, Dolby Vision, 10-bit]


    • Комментарии (0):

      Информация

      Информация

        Посетители, находящиеся в группе Гости, не могут оставлять комментарии в данной новости.

        ↓ Меню




        ↓ Опрос

        Вы добавили сайт в закладки?
        Да
        Нет


        Top 10 за месяц (Мультфильмы)