.
Авторизация | Регистрация
Хочешь лучшие торренты? Добавь свой email!
Добавить

Торрент скачать бесплатно

  • support: webmaster@btracker.org
» » Князь Удача Андреевич (1989) DVDRip торрент скачать бесплатно


    Князь Удача Андреевич (1989) DVDRip торрент скачать бесплатно

    Опубликовал: Админ | Дата: 27-05-2018, 05:00 | .torrent скачали: 1

    Князь Удача Андреевич (1989) DVDRipРусское название: Князь Удача Андреевич
    Год выпуска: 1989
    Жанр: Детская комедия, Приключения, Семейный
    Ограничения: Ограничений по возрасту нет

    Описание фильма

    Увлекательная детская комедия о том, как двое мальчишек занялись изучением истории родного края и различными случайностями оказываются втянутыми в невероятный круговорот событий. Начиная выяснять куда пропали страницы из книги в библиотеке они помогают милиции найти мошенников которые сбывают краденое из музеев антиквариата.
    Режиссер: Геннадий Байсак

    Актеры
    Евгений Пивоваров, Дмитрий Головин, Светлана Крючкова, Виктор Павлов, Армен Джигарханян, Станислав Садальский, Владимир Стеклов, Борис Галкин, Николай Парфенов, Валерий Баринов, Татьяна Пельтцер, Борис Новиков, Раиса Рязанова, Мария Виноградова
    Продолжительность: 1: 15: 33

    Видеокодек: Xvid
    Битрейт видео: ~2249 kb/s
    Размер кадра: 720x432
    Качество видео: DVDRip
    Аудиокодек: AC3 2.0
    Битрейт аудио: 192 kb/s
    Общее
    Полное имя : E: NNM-CLUBКнязь \'\'Удача\'\' Андреевич.avi
    Формат : AVI
    Формат/Информация : Audio Video Interleave
    Размер файла : 1, 22 Гбайт
    Продолжительность : 1 ч. 15 м.
    Общий поток : 2303 Кбит/сек
    Программа кодирования : VirtualDubModRus 1.5.10.2 (build 2542/release)
    Библиотека кодирования : VirtualDubMod build 2542/release
    Видео
    Идентификатор : 0
    Формат : MPEG-4 Visual
    Настройки формата : BVOP1
    Параметр BVOP формата : 1
    Параметр QPel формата : Нет
    Параметр GMC формата : Без точки перехода
    Параметр матрицы формата : Default (H.263)
    Режим смешивания : Сжатый битовый поток
    Идентификатор кодека : DX50
    Идентификатор кодека/Подсказка : DivX 5
    Продолжительность : 1 ч. 15 м.
    Битрейт : 2101 Кбит/сек
    Номинальный битрейт : 4854 Кбит/сек
    Ширина : 720 пикселей
    Высота : 432 пикселя
    Соотношение сторон : 5: 3
    Частота кадров : 25, 000 кадров/сек
    Цветовое пространство : YUV
    Субдискретизация насыщенности : 4: 2: 0
    Битовая глубина : 8 бит
    Тип развёртки : Прогрессивная
    Метод сжатия : С потерями
    Бит/(Пиксели*Кадры) : 0.270
    Размер потока : 1, 11 Гбайт (91%)
    Библиотека кодирования : DivX 6.8.3-6.8.4 (UTC 2008-06-07)
    Аудио
    Идентификатор : 1
    Формат : AC-3
    Формат/Информация : Audio Coding 3
    Идентификатор кодека : 2000
    Продолжительность : 1 ч. 15 м.
    Вид битрейта : Постоянный
    Битрейт : 192 Кбит/сек
    Каналы : 2 канала
    Расположение каналов : Front: L R
    Частота : 48, 0 КГц
    Частота кадров : 31, 250 кадров/сек (1536 SPF)
    Битовая глубина : 16 бит
    Метод сжатия : С потерями
    Размер потока : 104 Мбайт (8%)
    Выравнивание : Соединение по промежуткам
    Продолжительность промежутка : 40 мс. (1, 00 видеокадр)
    Время предзагрузки промежутка : 512 мс.
    ServiceKind/String : Complete Main

    Скриншоты для ознакомления


    Время раздачи: 24/7Реставрация от: master-13


    Онлайн видео Излом времени



    Князь Удача Андреевич (1989) DVDRip
    Рейтинг →
     (голосов: 1, оценка 3/5, голосовать можно 1 раз )

    Другие торренты по теме:

  • Князь Удача Андреевич (1989) DVDRip [H.264]


    • Комментарии (0):

      Информация

      Информация

        Посетители, находящиеся в группе Гости, не могут оставлять комментарии в данной новости.

        ↓ Меню




        ↓ Опрос

        Вы добавили сайт в закладки?
        Да
        Нет


        Top 10 за месяц (Мультфильмы)