.
Авторизация | Регистрация
Хочешь лучшие торренты? Добавь свой email!
Добавить

Торрент скачать бесплатно

  • support: webmaster@btracker.org
» » Излом времени / A Wrinkle in Time (2018) BDRip [UKR, ENG] торрент скачать бесплатно


    Излом времени / A Wrinkle in Time (2018) BDRip [UKR, ENG] торрент скачать бесплатно

    Опубликовал: Админ | Дата: 27-05-2018, 05:00 | .torrent скачали: 1

    Излом времени / A Wrinkle in Time (2018) BDRip [UKR, ENG]Производство: США, Walt Disney Pictures, Whitaker Entertainment
    Жанр: Фантастика, Фэнтези, Приключения, Семейный
    Режиссер: Ава ДюВерней
    Продюсер: Катрин Хэнд, Адам Борба, Дуглас С. Меррифилд

    Актеры
    Сторм Рейд, Опра Уинфри, Риз Уизерспун, Минди Кейлинг, Леви Миллер, Дерик Маккейб, Крис Пайн, Гугу Эмбата-Ро, Зак Галифианакис, Майкл Пенья

    Описание

    Юная Мэг вместе с младшим братом и школьным приятелем решает отправиться на поиски своего отца, учёного-физика, пропавшего в ходе научного эксперимента. Найти его предстоит не в привычном мире, а в таинственных изломах времени и пространства, где понятие реальности относительно и ничему нельзя верить! Выбраться из фантастических миров и победить тьму, которая распространяется по вселенной, можно, только изучив себя и приняв свои недостатки.

    Возраст: 6+ (зрителям, достигшим 6 лет)
    Рейтинг MPAA: PG (рекомендуется присутствие родителей)
    Продолжительность : 01: 49: 37
    Качество видео: BDRip
    Перевод: Отсутствует
    Язык озвучки : Украинский дубляж (студия LeDoyen), английский (оригинал)
    Субтитры: Отсутствуют
    Видео: Xvid, 720x304, ~1347 kbps
    Аудио 1 : AC3, 2 ch, 192 Kbps | Украинский дубляж (LeDoyen)
    Аудио 2 : AC3, 6 ch, 448 Kbps | English (оригинал)
    Общее
    Полное имя : A.Wrinkle.in.Time.2018.BDRip.avi
    Формат : AVI
    Формат/Информация : Audio Video Interleave
    Размер файла : 1, 53 Гбайт
    Продолжительность : 1 ч. 49 м.
    Общий поток : 2001 Кбит/сек
    Программа кодирования : VirtualDubMod 1.5.10.3 (build 2550/release)
    Библиотека кодирования : VirtualDubMod build 2550/release
    Видео
    Идентификатор : 0
    Формат : MPEG-4 Visual
    Профиль формата : Advanced Simple@L5
    Настройки формата : BVOP2
    Параметр BVOP формата : 2
    Параметр QPel формата : Нет
    Параметр GMC формата : Без точки перехода
    Параметр матрицы формата : Default (H.263)
    Режим смешивания : Сжатый битовый поток
    Идентификатор кодека : XVID
    Идентификатор кодека/Подсказка : XviD
    Продолжительность : 1 ч. 49 м.
    Битрейт : 1347 Кбит/сек
    Ширина : 720 пикселей
    Высота : 304 пикселя
    Соотношение сторон : 2, 35: 1
    Частота кадров : 23, 976 (24000/1001) кадра/сек
    Цветовое пространство : YUV
    Субдискретизация насыщенности : 4: 2: 0
    Битовая глубина : 8 бит
    Тип развёртки : Прогрессивная
    Метод сжатия : С потерями
    Бит/(Пиксели*Кадры) : 0.257
    Размер потока : 1, 03 Гбайт (67%)
    Библиотека кодирования : XviD 66
    Аудио #1
    Идентификатор : 1
    Формат : AC-3
    Формат/Информация : Audio Coding 3
    Идентификатор кодека : 2000
    Продолжительность : 1 ч. 49 м.
    Вид битрейта : Постоянный
    Битрейт : 192 Кбит/сек
    Каналы : 2 канала
    Расположение каналов : Front: L R
    Частота : 48, 0 КГц
    Частота кадров : 31, 250 кадров/сек (1536 SPF)
    Битовая глубина : 16 бит
    Метод сжатия : С потерями
    Размер потока : 151 Мбайт (10%)
    Выравнивание : Разделение по промежуткам
    Продолжительность промежутка : 42 мс. (1, 00 видеокадр)
    Время предзагрузки промежутка : 500 мс.
    ServiceKind/String : Complete Main
    Аудио #2
    Идентификатор : 2
    Формат : AC-3
    Формат/Информация : Audio Coding 3
    Идентификатор кодека : 2000
    Продолжительность : 1 ч. 49 м.
    Вид битрейта : Постоянный
    Битрейт : 448 Кбит/сек
    Каналы : 6 каналов
    Расположение каналов : Front: L C R, Side: L R, LFE
    Частота : 48, 0 КГц
    Частота кадров : 31, 250 кадров/сек (1536 SPF)
    Битовая глубина : 16 бит
    Метод сжатия : С потерями
    Размер потока : 351 Мбайт (22%)
    Выравнивание : Соединение по промежуткам
    Продолжительность промежутка : 42 мс. (1, 00 видеокадр)
    Время предзагрузки промежутка : 512 мс.
    ServiceKind/String : Complete Main

    Скриншоты для ознакомления



    Все одноименные релизы в Клубе
    Время раздачи: Сб-Вс с 09: 00 до 23: 30 (до появления первых 3-5 скачавших)


    Онлайн видео Излом времени



    Излом времени/A Wrinkle in Time (2018) BDRip [UKR, ENG]
    Рейтинг →
     (голосов: 1, оценка 3/5, голосовать можно 1 раз )

    Другие торренты по теме:

  • Излом времени / A Wrinkle in Time (2018) BDRip [H.264 / 1080p] [UKR, ENG / EN Sub]
  • Излом времени / A Wrinkle in Time (2018) BDRip [H.264] [UKR, ENG / EN Sub]
  • Излом времени / A Wrinkle in Time (2018) BDRemux [H.264 / 1080p] [EN / EN, Fr, Sp Sub]
  • Излом времени / A Wrinkle in Time (2018) HDRip
  • Излом времени / A Wrinkle in Time (2018) BDRip [H.264 / 1080p]
  • Излом времени / A Wrinkle in Time (2018) UHD BDRemux [H.265 / 2160p] [4K, HDR, 10-bit]
  • Излом времени / A Wrinkle in Time (2018) BDRip [720p] ATV
  • Излом времени / A Wrinkle in Time (2018) BDRip [1080p] ATV


    • Комментарии (0):

      Информация

      Информация

        Посетители, находящиеся в группе Гости, не могут оставлять комментарии в данной новости.

        ↓ Меню




        ↓ Опрос

        Вы добавили сайт в закладки?
        Да
        Нет


        Top 10 за месяц (Мультфильмы)