.
Авторизация | Регистрация
Хочешь лучшие торренты? Добавь свой email!
Добавить

Торрент скачать бесплатно

  • support: webmaster@btracker.org
» » Частное пионерское 3. Привет, взрослая жизнь! (2017) WEB-DL [H.264 / 1080p-LQ] торрент скачать бесплатно


    Частное пионерское 3. Привет, взрослая жизнь! (2017) WEB-DL [H.264 / 1080p-LQ] торрент скачать бесплатно

    Опубликовал: Админ | Дата: 22-05-2018, 05:00 | .torrent скачали: 0

    Частное пионерское 3. Привет, взрослая жизнь! (2017) WEB-DL [H.264 / 1080p-LQ]Производство: Россия/Кинопрограмма XXI Век
    Жанр: Комедия, приключения, семейный
    Режиссер: Александр Карпиловский

    Актеры
    Семен Трескунов, Егор Клинаев, Анфиса Вистингаузен, Максим Иванов, Тимофей Трибунцев, Андрей Мерзликин, Олег Блинов, Станислав Румянцев, Дарья Руденок, Мария Лисовая

    Описание

    Завершающая часть трилогии о советском пионерском детстве, в которой наши герои оканчивают школу и попадают в череду приключений, прощаются с детством и начинают взрослеть.

    Возраст: 12+ (зрителям, достигшим 12 лет)
    Продолжительность: 01: 34: 29
    Качество видео: WEB-DL
    Перевод: Не требуется (русский) iTunes
    Субтитры: Русские (на иностранную речь-хардсаб)
    Видео: AVC/H.264, 1920x804 (2.40: 1), ~4430 Kbps
    Аудио: AC3, 2 ch, 192 Kbps

    Общее
    Уникальный идентификатор : 93165769257473708092561826127452399109 (0x46171311272B22DCF412C4CE5BC56605)
    Полное имя : D: Частное пионерское 3. Привет, взрослая жизнь (2017).mkv
    Формат : Matroska
    Версия формата : Version 4/Version 2
    Размер файла : 3, 11 Гбайт
    Продолжительность : 1 ч. 34 м.
    Общий поток : 4715 Кбит/сек
    Дата кодирования : UTC 2018-05-20 20: 16: 49
    Программа кодирования : Lavf57.71.100
    Библиотека кодирования : Lavf57.71.100
    ErrorDetectionType : Per level 1
    Видео
    Идентификатор : 1
    Формат : AVC
    Формат/Информация : Advanced Video Codec
    Профиль формата : High@L4
    Настройки формата : CABAC/5 Ref Frames
    Параметр CABAC формата : Да
    Параметр RefFrames формата : 5 кадров
    Идентификатор кодека : V_MPEG4/ISO/AVC
    Продолжительность : 1 ч. 34 м.
    Битрейт : 4429 Кбит/сек
    Ширина : 1920 пикселей
    Высота : 804 пикселя
    Соотношение сторон : 2, 40: 1
    Режим частоты кадров : Постоянный
    Частота кадров : 25, 000 кадров/сек
    Цветовое пространство : YUV
    Субдискретизация насыщенности : 4: 2: 0
    Битовая глубина : 8 бит
    Тип развёртки : Прогрессивная
    Бит/(Пиксели*Кадры) : 0.115
    Размер потока : 2, 92 Гбайт (94%)
    Язык : English
    Default : Да
    Forced : Нет
    Цветовой диапазон : Limited
    Основные цвета : BT.709
    Характеристики трансфера : BT.709
    Коэффициенты матрицы : BT.709
    FromStats_BitRate : 4519591
    FromStats_Duration : 01: 34: 29.120000000
    FromStats_FrameCount : 141728
    FromStats_StreamSize : 3202763169
    Аудио
    Идентификатор : 2
    Формат : AC-3
    Формат/Информация : Audio Coding 3
    Идентификатор кодека : A_AC3
    Продолжительность : 1 ч. 34 м.
    Вид битрейта : Постоянный
    Битрейт : 192 Кбит/сек
    Каналы : 2 канала
    Расположение каналов : Front: L R
    Частота : 48, 0 КГц
    Частота кадров : 31, 250 кадров/сек (1536 SPF)
    Битовая глубина : 16 бит
    Метод сжатия : С потерями
    Размер потока : 130 Мбайт (4%)
    Язык : Russian
    ServiceKind/String : Complete Main
    Default : Да
    Forced : Нет
    FromStats_BitRate : 126627
    FromStats_Duration : 01: 34: 29.120000000
    FromStats_FrameCount : 265740
    FromStats_StreamSize : 89733364

    Скриншоты для ознакомления



    Все одноименные релизы в Клубе
    Время раздачи: 24/7 (круглосуточно) (до появления первых 3-5 скачавших)


    Онлайн видео Частное пионерское 3. Привет, взрослая жизнь! (2017) WEB-DL [H.264



    Частное пионерское 3. Привет, взрослая жизнь! (2017) WEB-DL [H.264/1080p-LQ]
    Рейтинг →
     (голосов: 1, оценка 4/5, голосовать можно 1 раз )

    Другие торренты по теме:

  • Частное пионерское (2013) HDTVRip скачать через торрент бесплатно
  • Частное пионерское (2013) HDTVRip [720p] скачать через торрент бесплатно
  • Частное пионерское (2013) HDTV [1080i] скачать через торрент бесплатно
  • Частное пионерское 2 (2015) WEBRip
  • Частное пионерское (2013) HDTVRip [H.264] [MP4|1024x436]
  • Частное пионерское 2 (2015) WEB-DLRip [H.264]
  • Частное пионерское 2 (2015) WEB-DL [H.264 / 720p-LQ]
  • Частное пионерское 2 (2015) WEB-DLRip


    • Комментарии (0):

      Информация

      Информация

        Посетители, находящиеся в группе Гости, не могут оставлять комментарии в данной новости.

        ↓ Меню




        ↓ Опрос

        Вы добавили сайт в закладки?
        Да
        Нет


        Top 10 за месяц (Мультфильмы)