.
Авторизация | Регистрация
Хочешь лучшие торренты? Добавь свой email!
Добавить

Торрент скачать бесплатно

  • support: webmaster@btracker.org
» » Беляночка и Розочка / Schneeweißchen und Rosenrot (1979) VHSRip торрент скачать бесплатно


    Беляночка и Розочка / Schneeweißchen und Rosenrot (1979) VHSRip торрент скачать бесплатно

    Опубликовал: Админ | Дата: 22-05-2018, 05:00 | .torrent скачали: 1

    Беляночка и Розочка / Schneeweißchen und Rosenrot (1979) VHSRipПроизводство: Германия (ГДР)/Киностудия Дефа
    Жанр: Фэнтези, Семейный
    Режиссер: Зигфрид Хартманн
    Продюсер: Вольфганг Реннебарт

    Актеры
    Юлия Юриштова, Катрин Мартин, Павел Травничек, Бодо Вольф, Ханс-Петер Минетти, Иоганнес Вике, Аннемоне Хазе, Хайо Менде, Педро Хебенштрайт, Хельмут Шрайбер

    Описание

    Экранизация одной из сказок Братьев Гримм.
    Это история о двух милых сестрах, которые живут с мамой в заброшенной деревушке рядом со старой заколдованной штольней. В штольне поселился злой дух, который прогнал всех горняков из деревни. Продавая на рынке свои товары девушки знакомятся с двумя принцами, выдаваемыми себя за охотников, которые не боятся отправиться в штольню и прогнать дух...

    Возраст: 0+ (для любой зрительской аудитории)
    Дата мировой премьеры: 06.07.1979
    Продолжительность: 01: 06: 01
    Качество видео: VHSRip
    Перевод: Дублированный (Советский дубляж)
    Субтитры: Отсутствуют
    Видео: Xvid, 720x540 (4: 3), ~2589 Kbps
    Аудио: MP3, 2 ch, ~192 Kbps

    Общее
    Полное имя : D: CDБеляночка и РозочкаБеляночка_и_Розочка_(1979)_(Советская прокатная копия).avi
    Формат : AVI
    Формат/Информация : Audio Video Interleave
    Размер файла : 1, 29 Гбайт
    Продолжительность : 1 ч. 6 м.
    Общий поток : 2791 Кбит/сек
    Библиотека кодирования : VirtualDub build 35576/release
    Видео
    Идентификатор : 0
    Формат : MPEG-4 Visual
    Профиль формата : Advanced Simple@L5
    Настройки формата : BVOP2
    Параметр BVOP формата : 2
    Параметр QPel формата : Нет
    Параметр GMC формата : Без точки перехода
    Параметр матрицы формата : Default (MPEG)
    Режим смешивания : Сжатый битовый поток
    Идентификатор кодека : XVID
    Идентификатор кодека/Подсказка : XviD
    Продолжительность : 1 ч. 6 м.
    Битрейт : 2589 Кбит/сек
    Ширина : 720 пикселей
    Высота : 540 пикселей
    Соотношение сторон : 4: 3
    Частота кадров : 25, 000 кадров/сек
    Цветовое пространство : YUV
    Субдискретизация насыщенности : 4: 2: 0
    Битовая глубина : 8 бит
    Тип развёртки : Прогрессивная
    Метод сжатия : С потерями
    Бит/(Пиксели*Кадры) : 0.266
    Размер потока : 1, 19 Гбайт (93%)
    Библиотека кодирования : XviD 67
    Аудио
    Идентификатор : 1
    Формат : MPEG Audio
    Версия формата : Version 1
    Профиль формата : Layer 3
    Настройки формата : Joint stereo/MS Stereo
    Идентификатор кодека : 55
    Идентификатор кодека/Подсказка : MP3
    Продолжительность : 1 ч. 6 м.
    Вид битрейта : Постоянный
    Битрейт : 192 Кбит/сек
    Каналы : 2 канала
    Частота : 48, 0 КГц
    Метод сжатия : С потерями
    Размер потока : 90, 7 Мбайт (7%)
    Выравнивание : Разделение по промежуткам
    Продолжительность промежутка : 40 мс. (1, 00 видеокадр)
    Время предзагрузки промежутка : 500 мс.

    Скриншоты для ознакомления



    Все одноименные релизы в Клубе
    Время раздачи: 24/7 (круглосуточно) (до появления первых 3-5 скачавших)


    Онлайн видео Беляночка и Розочка



    Беляночка и Розочка/Schneeweißchen und Rosenrot (1979) VHSRip
    Рейтинг →
     (голосов: 1, оценка 3/5, голосовать можно 1 раз )

    Другие торренты по теме:

  • Беляночка и Розочка / SchneeweiВchen und Rosenrot (1979) DVDRip [H.264] скачать через торрент бесплатно
  • Беляночка и Розочка / SchneeweiBchen und Rosenrot (2012) DVB


    • Комментарии (0):

      Информация

      Информация

        Посетители, находящиеся в группе Гости, не могут оставлять комментарии в данной новости.

        ↓ Меню




        ↓ Опрос

        Вы добавили сайт в закладки?
        Да
        Нет


        Top 10 за месяц (Мультфильмы)