.
Авторизация | Регистрация
Хочешь лучшие торренты? Добавь свой email!
Добавить

Торрент скачать бесплатно

  • support: webmaster@btracker.org
» » Тайна Егора, или Необыкновенные приключения обыкновенным летом (2012) WEB-DLRip [H.264] торрент скачать бесплатно


    Тайна Егора, или Необыкновенные приключения обыкновенным летом (2012) WEB-DLRip [H.264] торрент скачать бесплатно

    Опубликовал: Админ | Дата: 21-05-2018, 05:00 | .torrent скачали: 0

    Тайна Егора, или Необыкновенные приключения обыкновенным летом (2012) WEB-DLRip [H.264]Производство: Россия
    Жанр: Приключения, детский
    Режиссер: Александра Ерофеева

    Актеры
    Александр Вдовин, Агриппина Стеклова, Денис Суханов, Егор Клинаев, Кирилл Кяро, Ольга Волкова, Юлия Анищенко, Валентин Садики, Марина Дровосекова, Константин Юдаев

    Описание

    Тёма Круглов, 12-летний школьник, мечтал провести летние каникулы, как ему нравится: целыми днями играть в компьютерные игры, а потом с мамой и отчимом поехать на море. Однако обстоятельства сложились так, что он оказался на чужой даче, без интернета, да ещё в компании собственного отца Олега, с которым до этого почти не общался. Найти общий язык Тёме и Олегу помогают загадочные события, которые происходят в развалинах старинной усадьбы, находящейся недалеко от дачи…

    Возраст: 6+ (зрителям, достигшим 6 лет)
    Продолжительность: 01: 29: 56
    Качество видео: WEB-DLRip
    Субтитры: Отсутствуют
    Видео: AVC/H.264, 1024x576 (16: 9), ~1955 Kbps
    Аудио: AC3, 2 ch, 192 Kbps

    Общее
    Уникальный идентификатор : 275010296595540750094373350794428924994 (0xCEE50E7847813812155B6E784A03C442)
    Полное имя : D: Тайна Егора, или Необыкновенные приключения обыкновенным летом (2012).mkv
    Формат : Matroska
    Версия формата : Version 4/Version 2
    Размер файла : 1, 35 Гбайт
    Продолжительность : 1 ч. 29 м.
    Общий поток : 2151 Кбит/сек
    Дата кодирования : UTC 2018-05-20 19: 49: 02
    Программа кодирования : mkvmerge v23.0.0 (\'The Bride Said No\') 64-bit
    Библиотека кодирования : libebml v1.3.6 + libmatroska v1.4.9/Lavf57.71.100
    Видео
    Идентификатор : 1
    Формат : AVC
    Формат/Информация : Advanced Video Codec
    Профиль формата : Main@L3.1
    Настройки формата : CABAC/1 Ref Frames
    Параметр CABAC формата : Да
    Параметр RefFrames формата : 1 кадр
    Идентификатор кодека : V_MPEG4/ISO/AVC
    Продолжительность : 1 ч. 29 м.
    Битрейт : 1957 Кбит/сек
    Ширина : 1024 пикселя
    Высота : 576 пикселей
    Соотношение сторон : 16: 9
    Режим частоты кадров : Постоянный
    Частота кадров : 25, 000 кадров/сек
    Цветовое пространство : YUV
    Субдискретизация насыщенности : 4: 2: 0
    Битовая глубина : 8 бит
    Тип развёртки : Прогрессивная
    Бит/(Пиксели*Кадры) : 0.133
    Размер потока : 1, 23 Гбайт (91%)
    Default : Да
    Forced : Нет
    Аудио
    Идентификатор : 2
    Формат : AC-3
    Формат/Информация : Audio Coding 3
    Идентификатор кодека : A_AC3
    Продолжительность : 1 ч. 29 м.
    Вид битрейта : Постоянный
    Битрейт : 192 Кбит/сек
    Каналы : 2 канала
    Расположение каналов : Front: L R
    Частота : 48, 0 КГц
    Частота кадров : 31, 250 кадров/сек (1536 SPF)
    Битовая глубина : 16 бит
    Метод сжатия : С потерями
    Размер потока : 124 Мбайт (9%)
    ServiceKind/String : Complete Main
    Default : Да
    Forced : Нет

    Скриншоты для ознакомления



    Все одноименные релизы в Клубе
    Время раздачи: 24/7 (круглосуточно) (до появления первых 3-5 скачавших)


    Онлайн видео Тайна Егора, или Необыкновенные приключения обыкновенным летом (2012) WEB



    Тайна Егора, или Необыкновенные приключения обыкновенным летом (2012) WEB-DLRip [H.264]
    Рейтинг →
     (голосов: 1, оценка 3/5, голосовать можно 1 раз )

    Другие торренты по теме:

  • Артур Конан Дойл | Тайна Вистариа-Лодж (2014) [MP3]
  • Пол Хаффнер | Тайна таинств (2007) [PDF, DJVU]
  • NG. Тайна морского дьявола / Тайна Морского Дьявола (2011) HDTVRip [H.264 / 1080i-LQ]
  • Военная тайна с Игорем Прокопенко (27.09.2014) SATRip
  • Миккель Биркегор | Тайна "Libri di Luсa" (2014) [MP3]
  • Тайна королевы Анны или Мушкетеры тридцать лет спустя (1993) DVDRip [H.264] скачать через торрент бесплатно
  • Военная тайна с Игорем Прокопенко (2014.10.04) SATRip скачать через торрент бесплатно
  • Тайна Туринской Плащаницы. Епископ Василий(Родзянко) (2006) DVD5


    • Комментарии (0):

      Информация

      Информация

        Посетители, находящиеся в группе Гости, не могут оставлять комментарии в данной новости.

        ↓ Меню




        ↓ Опрос

        Вы добавили сайт в закладки?
        Да
        Нет


        Top 10 за месяц (Мультфильмы)