.
Авторизация | Регистрация
Хочешь лучшие торренты? Добавь свой email!
Добавить

Торрент скачать бесплатно

  • support: webmaster@btracker.org
» » Наши мульти - пульти (1970-1991) DVDRip [H.264] торрент скачать бесплатно


    Наши мульти - пульти (1970-1991) DVDRip [H.264] торрент скачать бесплатно

    Опубликовал: Админ | Дата: 19-05-2018, 05:00 | .torrent скачали: 2

    Наши мульти - пульти (1970-1991) DVDRip [H.264]Производство: СССР, Россия
    Жанр: Рисованная анимация, Детский, Сказка, Музыкальный
    Режиссер: Аида Зябликова, Лидия Сурикова, Иосиф Доукша, Владимир Самсонов и др.

    Описание

    Цикл предназначен для самого маленького зрителя и состоит из нескольких фильмов.

    Возраст: 0+ (для любой зрительской аудитории)
    Продолжительность: ~ 00: 17: 00 серия
    Качество видео: DVDRip
    Субтитры: нет
    Видео: AVC/H.264, 688x512, 704x512, 720x528, ~1301 Кбит/сек
    Аудио: AC3, 1 ch, 192 Кбит/сек
    Релиз-группа: byalmikl ®

    Общее
    Уникальный идентификатор : 39967276512201085311237631038125399482 (0x1E116ADEDBAEBAADDA94E2453DAE5DBA)
    Полное имя : 06.03.Фунтик и старушка с усами.1987.DVDRip.h264.almikl.nnm-club.mkv
    Формат : Matroska
    Версия формата : Version 2
    Размер файла : 106 Мбайт
    Продолжительность : 9 м. 52 с.
    Общий поток : 1501 Кбит/сек
    Дата кодирования : UTC 2018-02-05 13: 37: 48
    Программа кодирования : mkvmerge v19.0.0 (\'Brave Captain\') 64-bit
    Библиотека кодирования : libebml v1.3.5 + libmatroska v1.4.8
    Видео
    Идентификатор : 1
    Формат : AVC
    Формат/Информация : Advanced Video Codec
    Профиль формата : High@L4.1
    Настройки формата : CABAC/6 Ref Frames
    Параметр CABAC формата : Да
    Параметр RefFrames формата : 6 кадров
    Идентификатор кодека : V_MPEG4/ISO/AVC
    Продолжительность : 9 м. 52 с.
    Битрейт : 1308 Кбит/сек
    Ширина : 704 пикселя
    Высота : 512 пикселей
    Соотношение сторон : 1, 375
    Режим частоты кадров : Постоянный
    Частота кадров : 25, 000 кадров/сек
    Цветовое пространство : YUV
    Субдискретизация насыщенности : 4: 2: 0
    Битовая глубина : 8 бит
    Тип развёртки : Прогрессивная
    Бит/(Пиксели*Кадры) : 0.145
    Размер потока : 92, 3 Мбайт (87%)
    Библиотека кодирования : x264 core 152 r2851 ba24899
    Настройки программы : cabac=1/ref=6/deblock=1: -1: -1/analyse=0x3: 0x113/me=umh/subme=10/psy=1/psy_rd=1.00: 0.15/mixed_ref=1/me_range=32/chroma_me=1/trellis=2/8x8dct=1/cqm=0/deadzone=21, 11/fast_pskip=1/chroma_qp_offset=-3/threads=6/lookahead_threads=1/sliced_threads=0/nr=0/decimate=1/interlaced=0/bluray_compat=0/constrained_intra=0/bframes=10/b_pyramid=2/b_adapt=2/b_bias=0/direct=1/weightb=1/open_gop=0/weightp=2/keyint=250/keyint_min=25/scenecut=40/intra_refresh=0/rc_lookahead=40/rc=2pass/mbtree=1/bitrate=1308/ratetol=1.0/qcomp=0.60/qpmin=10/qpmax=51/qpstep=4/cplxblur=20.0/qblur=0.5/ip_ratio=1.40/aq=1: 1.00
    Default : Да
    Forced : Нет
    Аудио
    Идентификатор : 2
    Формат : AC-3
    Формат/Информация : Audio Coding 3
    Идентификатор кодека : A_AC3
    Продолжительность : 9 м. 52 с.
    Вид битрейта : Постоянный
    Битрейт : 192 Кбит/сек
    Каналы : 1 канал
    Расположение каналов : Front: C
    Частота : 48, 0 КГц
    Частота кадров : 31, 250 кадров/сек (1536 SPF)
    Битовая глубина : 16 бит
    Метод сжатия : С потерями
    Размер потока : 13, 6 Мбайт (13%)
    Язык : new
    ServiceKind/String : Complete Main
    Default : Да
    Forced : Нет


    Онлайн видео Наши мульти



    Наши мульти - пульти (1970-1991) DVDRip [H.264]
    Рейтинг →
     (голосов: 1, оценка 3/5, голосовать можно 1 раз )

    Другие торренты по теме:

  • Наши мульти - пульти (15 дисков из 15) (1970-1991) 15хDVD5


    • Комментарии (0):

      Информация

      Информация

        Посетители, находящиеся в группе Гости, не могут оставлять комментарии в данной новости.

        ↓ Меню




        ↓ Опрос

        Вы добавили сайт в закладки?
        Да
        Нет


        Top 10 за месяц (Мультфильмы)