.
Авторизация | Регистрация
Хочешь лучшие торренты? Добавь свой email!
Добавить

Торрент скачать бесплатно

  • support: webmaster@btracker.org
» » Пчёлка Майя и Кубок мёда / Maya the Bee: The Honey Games (2018) BDRip [H.264 / 1080p] [EN / EN Sub] торрент скачать бесплатно


    Пчёлка Майя и Кубок мёда / Maya the Bee: The Honey Games (2018) BDRip [H.264 / 1080p] [EN / EN Sub] торрент скачать бесплатно

    Опубликовал: Админ | Дата: 17-05-2018, 05:00 | .torrent скачали: 3

    Пчёлка Майя и Кубок мёда / Maya the Bee: The Honey Games (2018) BDRip [H.264 / 1080p] [EN / EN Sub]Производство: Германия, Австралия/Studio 100 Media, Studio B Animation
    Жанр: Мультфильм, Приключения, Комедия, Семейный
    Режиссер: Ноэль Клири, Серджо Делфино, Алекс Стадерманн
    Персонажи: Коко Джек Гиллис, Бенсон Джек Энтони, Ричард Роксбург, Джастин Кларк, Марни МакКуин, Linda Ngo, Кэм Ральф, Jordan Hare, Сэм Хафт, Питер МакАллум ...

    Описание

    Летний сбор пыльцы позади, и пчелы пребывают в возбужденном ожидании, ведь из столицы прибыл гонец, чтобы пригласить улей на соревнования за Кубок меда. Неутомимая пчелка Майя очень хочет принять участие в состязаниях, и тут выясняется, что улей может поучаствовать в играх только собственным медом: половина всего летнего урожая родного улья пойдет на то, чтобы прокормить атлетов из других сборных. Вопреки королевской воле, Майя отправляется в пчелиную столицу, Пчелкоград, чтобы предстать перед Королевой и с ее высочайшего дозволения получить право на участие в играх. Все получилось! Королева допустила Майю и ее команду до соревнований. Правда, теперь на кону не только честь улья, но еще и весь годовой запас меда! Смогут ли Майя и ее верные, но неспортивные друзья одержать победу?

    Возраст: 0+ (для любой зрительской аудитории)
    Дата мировой премьеры: 1 февраля 2018, ...
    Дата российской премьеры: 17 мая 2018, Пионер
    Продолжительность: 01: 24: 49
    Качество видео: BDRip 1080p
    Перевод: Отсутствует
    Язык озвучки: Английский
    Субтитры: Английские (отдельным файлом) (idx/sub)
    Видео: AVC, 1920x1040 (16: 9), 23.976 fps, 5 867 Kbps (0.123 bit/pixel)
    Аудио: DTS, 48.0 KHz, 6 ch, 1 510 Kbps, CBR (English)
    General
    Complete name : Maya.The.Bee.The.Honey.Games.2018.1080p.BluRay.x264-ROVERS.mkv
    Format : Matroska
    Format version : Version 4/Version 2
    File size : 4.37 GiB
    Duration : 1 h 24 min
    Overall bit rate : 7 379 kb/s
    Encoded date : UTC 2018-05-16 04: 25: 50
    Writing application : mkvmerge v8.3.0 (\'Over the Horizon\') 64bit
    Writing library : libebml v1.3.1 + libmatroska v1.4.2
    Video
    ID : 1
    Format : AVC
    Format/Info : Advanced Video Codec
    Format profile : High@L4.1
    Format settings : CABAC/4 Ref Frames
    Format settings, CABAC : Yes
    Format settings, ReFrames : 4 frames
    Codec ID : V_MPEG4/ISO/AVC
    Duration : 1 h 24 min
    Bit rate : 5 867 kb/s
    Width : 1 920 pixels
    Height : 1 040 pixels
    Display aspect ratio : 1.85: 1
    Frame rate mode : Constant
    Frame rate : 23.976 FPS
    Color space : YUV
    Chroma subsampling : 4: 2: 0
    Bit depth : 8 bits
    Scan type : Progressive
    Bits/(Pixel*Frame) : 0.123
    Stream size : 3.48 GiB (80%)
    Writing library : x264 core 155 r2901 7d0ff22
    Encoding settings : cabac=1/ref=4/deblock=1: 0: 0/analyse=0x3: 0x133/me=umh/subme=7/psy=1/psy_rd=1.00: 0.00/mixed_ref=1/me_range=16/chroma_me=1/trellis=1/8x8dct=1/cqm=0/deadzone=21, 11/fast_pskip=0/chroma_qp_offset=-2/threads=30/lookahead_threads=5/sliced_threads=0/nr=0/decimate=1/interlaced=0/bluray_compat=0/constrained_intra=0/bframes=3/b_pyramid=2/b_adapt=1/b_bias=0/direct=1/weightb=1/open_gop=0/weightp=2/keyint=250/keyint_min=23/scenecut=40/intra_refresh=0/rc_lookahead=40/rc=2pass/mbtree=1/bitrate=5867/ratetol=1.0/qcomp=0.60/qpmin=0/qpmax=69/qpstep=4/cplxblur=20.0/qblur=0.5/ip_ratio=1.40/aq=1: 1.00
    Language : English
    Default : Yes
    Forced : No
    Audio
    ID : 2
    Format : DTS
    Format/Info : Digital Theater Systems
    Codec ID : A_DTS
    Duration : 1 h 24 min
    Bit rate mode : Constant
    Bit rate : 1 509 kb/s
    Channel(s) : 6 channels
    Channel positions : Front: L C R, Side: L R, LFE
    Sampling rate : 48.0 kHz
    Frame rate : 93.750 FPS (512 SPF)
    Bit depth : 24 bits
    Compression mode : Lossy
    Stream size : 915 MiB (20%)
    Language : English
    Default : Yes
    Forced : No
    Menu
    00: 00: 00.000 : en: 00: 00: 00.000
    00: 07: 17.979 : en: 00: 07: 17.979
    00: 13: 21.300 : en: 00: 13: 21.300
    00: 20: 31.647 : en: 00: 20: 31.647
    00: 28: 22.200 : en: 00: 28: 22.200
    00: 34: 34.906 : en: 00: 34: 34.906
    00: 42: 38.598 : en: 00: 42: 38.598
    00: 54: 22.551 : en: 00: 54: 22.551
    01: 03: 58.877 : en: 01: 03: 58.877
    01: 16: 08.564 : en: 01: 16: 08.564

    Скриншоты для ознакомления






    Все одноименные релизы в Клубе
    Время раздачи: 24/7 (круглосуточно) (до появления первых 3-5 скачавших)


    Онлайн видео Пчёлка Майя и Кубок мёда



    Пчёлка Майя и Кубок мёда/Maya the Bee: The Honey Games (2018) BDRip [H.264/1080p] [EN/EN Sub]
    Рейтинг →
     (голосов: 1, оценка 3/5, голосовать можно 1 раз )

    Другие торренты по теме:

  • Пчёлка Майя / Maya The Bee – Movie (2014) WEB-DLRip [Line] скачать через торрент бесплатно
  • Пчёлка Майя / Maya The Bee – Movie (2014) BDRip [1080p] 3D [Вертикальная анаморфная стереопара]
  • Пчёлка Майя / Maya The Bee – Movie (2014) BDRip скачать через торрент бесплатно
  • Пчёлка Майя / Maya The Bee – Movie (2014) Blu-ray [H.264 / 1080p] [3D / 2D] скачать через торрент бесплатно
  • Пчёлка Майя / Maya The Bee – Movie (2014) BDRip [H.264 / 720p] скачать через торрент бесплатно
  • Пчёлка Майя / Maya The Bee – Movie (2014) HDRip [H.264] скачать через торрент бесплатно
  • Пчёлка Майя / Maya The Bee – Movie (2014) BDRip [H.264 / 1080p] скачать через торрент бесплатно
  • Пчёлка Майя / Maya The Bee – Movie (2014) BDRip 3D [H.264 / 1080p] [Вертикальная анаморфная стереопара] скачать через торрент бесплатно


    • Комментарии (0):

      Информация

      Информация

        Посетители, находящиеся в группе Гости, не могут оставлять комментарии в данной новости.

        ↓ Меню




        ↓ Опрос

        Вы добавили сайт в закладки?
        Да
        Нет


        Top 10 за месяц (Мультфильмы)