.
Авторизация | Регистрация
Хочешь лучшие торренты? Добавь свой email!
Добавить

Торрент скачать бесплатно

  • support: webmaster@btracker.org
» » Падает вверх (2015) WEB-DL [H.264 / 1080p-LQ] торрент скачать бесплатно


    Падает вверх (2015) WEB-DL [H.264 / 1080p-LQ] торрент скачать бесплатно

    Опубликовал: Админ | Дата: 17-05-2018, 05:00 | .torrent скачали: 0

    Падает вверх (2015) WEB-DL [H.264 / 1080p-LQ]Производство: Россия
    Жанр: Короткометражный, семейный, сказка, детский
    Режиссер: Андрей Ким

    Актеры
    Георгий Плинер, Анастасия Задорина, Дарья Чупракова, Андрей Шимичев, Павел Шерстобитов, Олеся Осминина, Данила Бородин, Вячеслав Хархота, Игорь Кравченко, Любовь Бурлакова

    Описание

    Веселая притча о свободе дружить и общаться, о самостоятельности и независимости. О том, что интуитивное, детское понятие Добра — и есть та исконная правда, к осознанию которой взрослые, порой, так непросто приходят.

    Возраст: 0+ (для любой зрительской аудитории)
    Релиз от: Aлexandr
    Продолжительность: 00: 42: 27
    Качество видео: WEB-DL
    Субтитры: Отсутствуют
    Видео: AVC/H.264, 1920x1080 (16: 9), ~3375 Kbps
    Аудио: AC3, 2 ch, 192 Kbps

    Общее
    Уникальный идентификатор : 15108175264667764455982009953070658595 (0xB5DBA8D0C6261E61DABABE7D5E8B423)
    Полное имя : D: Падает вверх (2015).by.Алехаndr.mkv
    Формат : Matroska
    Версия формата : Version 4/Version 2
    Размер файла : 1, 06 Гбайт
    Продолжительность : 42 м. 27 с.
    Общий поток : 3570 Кбит/сек
    Дата кодирования : UTC 2018-05-16 15: 48: 29
    Программа кодирования : mkvmerge v23.0.0 (\'The Bride Said No\') 64-bit
    Библиотека кодирования : libebml v1.3.6 + libmatroska v1.4.9/Lavf57.71.100
    Видео
    Идентификатор : 1
    Формат : AVC
    Формат/Информация : Advanced Video Codec
    Профиль формата : High@L4
    Настройки формата : CABAC/2 Ref Frames
    Параметр CABAC формата : Да
    Параметр RefFrames формата : 2 кадра
    Идентификатор кодека : V_MPEG4/ISO/AVC
    Продолжительность : 42 м. 27 с.
    Битрейт : 3377 Кбит/сек
    Ширина : 1920 пикселей
    Высота : 1080 пикселей
    Соотношение сторон : 16: 9
    Режим частоты кадров : Постоянный
    Частота кадров : 25, 000 кадров/сек
    Цветовое пространство : YUV
    Субдискретизация насыщенности : 4: 2: 0
    Битовая глубина : 8 бит
    Тип развёртки : Прогрессивная
    Бит/(Пиксели*Кадры) : 0.065
    Размер потока : 1, 00 Гбайт (95%)
    Default : Да
    Forced : Нет
    Аудио
    Идентификатор : 2
    Формат : AC-3
    Формат/Информация : Audio Coding 3
    Идентификатор кодека : A_AC3
    Продолжительность : 42 м. 27 с.
    Вид битрейта : Постоянный
    Битрейт : 192 Кбит/сек
    Каналы : 2 канала
    Расположение каналов : Front: L R
    Частота : 48, 0 КГц
    Частота кадров : 31, 250 кадров/сек (1536 SPF)
    Битовая глубина : 16 бит
    Метод сжатия : С потерями
    Размер потока : 58, 3 Мбайт (5%)
    ServiceKind/String : Complete Main
    Default : Да
    Forced : Нет

    Скриншоты для ознакомления



    Все одноименные релизы в Клубе
    Время раздачи: 24/7 (круглосуточно) (до появления первых 3-5 скачавших)


    Онлайн видео Падает вверх (2015) WEB-DL [H.264



    Падает вверх (2015) WEB-DL [H.264/1080p-LQ]
    Рейтинг →
     (голосов: 1, оценка 5/5, голосовать можно 1 раз )

    Другие торренты по теме:

  • Падает вверх (2015) SATRip (серии 1-8 из 8)


    • Комментарии (0):

      Информация

      Информация

        Посетители, находящиеся в группе Гости, не могут оставлять комментарии в данной новости.

        ↓ Меню




        ↓ Опрос

        Вы добавили сайт в закладки?
        Да
        Нет


        Top 10 за месяц (Мультфильмы)