.
Авторизация | Регистрация
Хочешь лучшие торренты? Добавь свой email!
Добавить

Торрент скачать бесплатно

  • support: webmaster@btracker.org
» » В Поисках Мамы / Finding Mother (2017) WEB-DLRip торрент скачать бесплатно


    В Поисках Мамы / Finding Mother (2017) WEB-DLRip торрент скачать бесплатно

    Опубликовал: Админ | Дата: 16-05-2018, 05:00 | .torrent скачали: 0

    В Поисках Мамы / Finding Mother (2017) WEB-DLRipПроизводство: Кыргызстан/Ark Brothers, Finding Mother
    Жанр: Драма, cемейный
    Режиссер: Руслан Акун

    Актеры
    Азамат Уланов, Тауекел Муслим, Эдгар Певснер, Ник Принсип, Майкл Арк, Илья Волох, Бакыт Осмонканов

    Описание

    Азамат растет в детском доме и совершенно ничего не знает о своей семье. Но однажды до него случайно доходит информация о том, что его мама может жить в Америке. Мальчик находит способ отправиться за границу: он выигрывает олимпиаду по математике и получает приглашение. За океан Азамат отправляется с большими надеждами…

    Релиз от: Aлexandr
    Продолжительность: 01: 50: 47
    Качество видео: WEB-DLRip
    Перевод: Одноголосый закадровый
    Язык озвучки: русский, кыргызский, английский
    Субтитры: русские (на кыргызскую речь)
    Видео: Xvid, 720x304 (2: 40.1), ~1690 Kbps
    Аудио: AC3, 2 ch, 192 Kbps

    Общее
    Полное имя : D: В поисках мамы (2017).by.Алехаndr.avi
    Формат : AVI
    Формат/Информация : Audio Video Interleave
    Профиль формата : OpenDML
    Размер файла : 1, 47 Гбайт
    Продолжительность : 1 ч. 50 м.
    Общий поток : 1895 Кбит/сек
    Программа кодирования : Lavf57.41.100
    Видео
    Идентификатор : 0
    Формат : xvid
    Идентификатор кодека : xvid
    Продолжительность : 1 ч. 50 м.
    Битрейт : 1691 Кбит/сек
    Ширина : 720 пикселей
    Высота : 304 пикселя
    Соотношение сторон : 2, 40: 1
    Частота кадров : 25, 000 кадров/сек
    Тип развёртки : Прогрессивная
    Бит/(Пиксели*Кадры) : 0.309
    Размер потока : 1, 31 Гбайт (89%)
    Аудио
    Идентификатор : 1
    Формат : AC-3
    Формат/Информация : Audio Coding 3
    Идентификатор кодека : 2000
    Продолжительность : 1 ч. 50 м.
    Вид битрейта : Постоянный
    Битрейт : 192 Кбит/сек
    Каналы : 2 канала
    Расположение каналов : Front: L R
    Частота : 48, 0 КГц
    Частота кадров : 31, 250 кадров/сек (1536 SPF)
    Битовая глубина : 16 бит
    Метод сжатия : С потерями
    Размер потока : 152 Мбайт (10%)
    Выравнивание : Соединение по промежуткам
    Продолжительность промежутка : 32 мс. (0, 80 видеокадр)
    ServiceKind/String : Complete Main


    Онлайн видео В Поисках Мамы



    В Поисках Мамы/Finding Mother (2017) WEB-DLRip
    Рейтинг →
     (голосов: 1, оценка 4/5, голосовать можно 1 раз )

    Другие торренты по теме:

  • В Поисках Мамы / Finding Mother (2017) DVDRip [H.264]


    • Комментарии (0):

      Информация

      Информация

        Посетители, находящиеся в группе Гости, не могут оставлять комментарии в данной новости.

        ↓ Меню




        ↓ Опрос

        Вы добавили сайт в закладки?
        Да
        Нет


        Top 10 за месяц (Мультфильмы)