.
Авторизация | Регистрация
Хочешь лучшие торренты? Добавь свой email!
Добавить

Торрент скачать бесплатно

  • support: webmaster@btracker.org
» » Огонь в глубине дерева (1978) TVRip торрент скачать бесплатно


    Огонь в глубине дерева (1978) TVRip торрент скачать бесплатно

    Опубликовал: Админ | Дата: 13-05-2018, 05:00 | .torrent скачали: 0

    Огонь в глубине дерева (1978) TVRipПроизводство: СССР/Одесская киностудия
    Жанр: Короткометражный, детский
    Режиссер: Юрий Иванчук

    Актеры
    Александр Иванчук, Николай Гринько, Елена Козелькова, Леонхард Мерзин, Лев Перфилов, Виктор Плотников

    Описание

    Двенадцатилетний Женька замкнут, необщителен, хотя растет в благополучной семье, где его окружают вниманием, покупают дорогие игрушки. Он любит мастерить. Но никто не разделяет его увлечения, у него нет товарищей. Случайная встреча Женьки с пожилым человеком изменяет его жизнь…

    Релиз от: Aлexandr
    Продолжительность: 00: 26: 20
    Качество видео: TVRip
    Субтитры: Отсутствуют
    Видео: Xvid, 640x480 (4: 3), ~1300 Kbps
    Аудио: MP3, 2 ch, 128 Kbps

    Общее
    Полное имя : D: Огонь в глубине дерева (1978).by.Алехаndr.avi
    Формат : AVI
    Формат/Информация : Audio Video Interleave
    Размер файла : 271 Мбайт
    Продолжительность : 26 м. 20 с.
    Общий поток : 1440 Кбит/сек
    Программа кодирования : Lavf57.41.100
    Видео
    Идентификатор : 0
    Формат : xvid
    Идентификатор кодека : xvid
    Продолжительность : 26 м. 20 с.
    Битрейт : 1299 Кбит/сек
    Ширина : 640 пикселей
    Высота : 480 пикселей
    Соотношение сторон : 4: 3
    Частота кадров : 25, 000 кадров/сек
    Тип развёртки : Прогрессивная
    Бит/(Пиксели*Кадры) : 0.169
    Размер потока : 245 Мбайт (90%)
    Аудио
    Идентификатор : 1
    Формат : MPEG Audio
    Версия формата : Version 1
    Профиль формата : Layer 3
    Настройки формата : Joint stereo/MS Stereo
    Идентификатор кодека : 55
    Идентификатор кодека/Подсказка : MP3
    Продолжительность : 26 м. 20 с.
    Вид битрейта : Постоянный
    Битрейт : 128 Кбит/сек
    Каналы : 2 канала
    Частота : 48, 0 КГц
    Метод сжатия : С потерями
    Размер потока : 24, 1 Мбайт (9%)
    Выравнивание : Соединение по промежуткам
    Продолжительность промежутка : 24 мс. (0, 60 видеокадр)
    Время предзагрузки промежутка : 24 мс.

    Скриншоты для ознакомления



    Все одноименные релизы в Клубе
    Время раздачи: 24/7 (круглосуточно) (до появления первых 3-5 скачавших)


    Онлайн видео Котенок с улицы Лизюкова 2 (2017) WEB-DLRip [H.264



    Огонь в глубине дерева (1978) TVRip
    Рейтинг →
     (голосов: 1, оценка 3/5, голосовать можно 1 раз )

    Другие торренты по теме:

  • NGW: Дикий Йеллоустоун: огонь и лед / Wild Yellowstone (2018) HDTV [H.264 / 1080i-LQ]
  • Олеся Николаева | Небесный огонь и другие рассказы (2012) [FB2]
  • Самолеты: Огонь и вода / Planes: Fire and Rescue (2014) HDRip [Звук с TS] скачать через торрент бесплатно
  • Беглый огонь / Rapid Fire (1992) HDTVRip [H.264] скачать через торрент бесплатно
  • Самолеты: Огонь и вода / Planes: Fire and Rescue (2014) BDRip [1080p] [Звук с TS] скачать через торрент бесплатно
  • Самолеты: Огонь и вода / Planes: Fire and Rescue (2014) BDRip [H.264 / 720p-LQ] [Звук с TS] скачать через торрент бесплатно
  • Самолеты: Огонь и вода / Planes: Fire and Rescue (2014) BDRemux [1080p] [Звук с TS]
  • Самолеты: Огонь и вода / Planes: Fire and Rescue (2014) BDRip [720p] [Line] скачать через торрент бесплатно


    • Комментарии (0):

      Информация

      Информация

        Посетители, находящиеся в группе Гости, не могут оставлять комментарии в данной новости.

        ↓ Меню




        ↓ Опрос

        Вы добавили сайт в закладки?
        Да
        Нет


        Top 10 за месяц (Мультфильмы)