.
Авторизация | Регистрация
Хочешь лучшие торренты? Добавь свой email!
Добавить

Торрент скачать бесплатно

  • support: webmaster@btracker.org
» » Котенок с улицы Лизюкова 2 (2017) WEB-DLRip [H.264 / 720p-LQ] торрент скачать бесплатно


    Котенок с улицы Лизюкова 2 (2017) WEB-DLRip [H.264 / 720p-LQ] торрент скачать бесплатно

    Опубликовал: Админ | Дата: 13-05-2018, 05:00 | .torrent скачали: 11

    Котенок с улицы Лизюкова 2 (2017) WEB-DLRip [H.264 / 720p-LQ]Год выпуска: 2017
    Производство: Россия (Союзмультфильм, Студия Wizart Animation)
    Жанр: Детский, Компьютерная анимация
    Режиссер: Алексей Замыслов
    Продюсер: Юрий Москвин, Владимир Николаев
    Сценарий: Виталий Злотников, Алексей Цицилин, Владимир Николаев
    Роли озвучивали: Дмитрий Курта, Ольга Шорохова, Ирина Пономарева, Александра Николаева, Лина Иванова, Вячеслав Гардер, Александр Носков, Филипп Лебедев, Антон Тимофеев, Антон Савенков

    Описание

    В основе Котенка с улицы Лизюкова-2 сценарий авторов первой части Виталия Злотникова и Вячеслава Котеночкина. Воронежские мультипликаторы адаптировали сюжет, сделав его более современным, но значительная часть первоначальных задумок авторов осталась. Вместо злобной собаки, которая преследовала котенка в первой части, аниматоры сделали Василию друга – щенка Бульку. Вместе они волшебным образом перенеслись из заснеженного Воронежа в Австралию, где познакомились с местными животными – коалами, кенгуру, акулами и крокодилами.

    Возраст: 0+ (для любой зрительской аудитории)
    Рейтинг MPAA: G (нет возрастных ограничений)
    Релиз от: Natasha77
    Продолжительность: ~ 00: 13: 20
    Качество видео: WEB-DLRip
    Перевод: Не требуется (Русский)
    Видео: AVC/H.264, 1280x720, ~1300 kbps
    Аудио: AAC, 2 ch, 128 kbps
    Код: выделить все

    General
    Unique ID : 213349951997417684230115908568169734218 (0xA081B4C42F4702A62D1FBEBE4886604A)
    Complete name : C:Котенок с улицы Лизюкова 2.mkv
    Format : Matroska
    Format version : Version 4/Version 2
    File size : 134 MiB
    Duration : 13 min 22 s
    Overall bit rate : 1 402 kb/s
    Encoded date : UTC 2018-05-12 18:47:10
    Writing application : mkvmerge v23.0.0 (\'The Bride Said No\') 32-bit
    Writing library : libebml v1.3.6 + libmatroska v1.4.9
    Video
    ID : 1
    Format : AVC
    Format/Info : Advanced Video Codec
    Format profile :Main@L3.1
    Format settings : CABAC/3 Ref Frames
    Format settings, CABAC : Yes
    Format settings, ReFrames : 3 frames
    Codec ID : V_MPEG4/ISO/AVC
    Duration : 13 min 22 s
    Bit rate : 1 274 kb/s
    Width : 1 280 pixels
    Height : 720 pixels
    Display aspect ratio : 16:9
    Frame rate mode : Constant
    Frame rate : 24.000 FPS
    Color space : YUV
    Chroma subsampling : 4:2:0
    Bit depth : 8 bits
    Scan type : Progressive
    Bits/(Pixel*Frame) : 0.058
    Stream size : 122 MiB (91%)
    Default : Yes
    Forced : No
    Color range : Limited
    Color primaries : BT.709
    Transfer characteristics : BT.709
    Matrix coefficients : BT.709
    Audio
    ID : 2
    Format : AAC
    Format/Info : Advanced Audio Codec
    Format profile : LC
    Codec ID : A_AAC-2
    Duration : 13 min 22 s
    Bit rate : 126 kb/s
    Channel(s) : 2 channels
    Channel positions : Front: L R
    Sampling rate : 44.1 kHz
    Frame rate : 43.066 FPS (1024 SPF)
    Compression mode : Lossy
    Stream size : 12.0 MiB (9%)
    Default : Yes
    Forced : No

    Скриншоты для ознакомления


    Котенок с улицы Лизюкова на NoNaMe Club


    Онлайн видео Котенок с улицы Лизюкова 2 (2017) WEB-DLRip [H.264



    Котенок с улицы Лизюкова 2 (2017) WEB-DLRip [H.264/720p-LQ]
    Рейтинг →
     (голосов: 1, оценка 3/5, голосовать можно 1 раз )

    Другие торренты по теме:

  • Котенок с улицы Лизюкова (1988) BDRip [H.264] [Реставрация] скачать через торрент бесплатно


    • Комментарии (0):

      Информация

      Информация

        Посетители, находящиеся в группе Гости, не могут оставлять комментарии в данной новости.

        ↓ Меню




        ↓ Опрос

        Вы добавили сайт в закладки?
        Да
        Нет


        Top 10 за месяц (Мультфильмы)