.
Авторизация | Регистрация
Хочешь лучшие торренты? Добавь свой email!
Добавить

Торрент скачать бесплатно

  • support: webmaster@btracker.org
» » Дикие предки / Early Man (2018) WEBRip [H.264 / 1080p-LQ] [EN / EN Sub] торрент скачать бесплатно


    Дикие предки / Early Man (2018) WEBRip [H.264 / 1080p-LQ] [EN / EN Sub] торрент скачать бесплатно

    Опубликовал: Админ | Дата: 12-05-2018, 05:00 | .torrent скачали: 4

    Дикие предки / Early Man (2018) WEBRip [H.264 / 1080p-LQ] [EN / EN Sub]Производство: Великобритания, Франция/Aardman Animations, Amazon Prime Instant Video, BFI\'s Film Found
    Жанр: Мультфильм, Приключения, Комедия, Фентези, Семейный
    Режиссер: Ник Парк
    Персонажи: Эдди Редмэйн, Том Хиддлстон, Мэйси Уильямс, Тимоти Сполл, Ричард Айоади, Марк Уильямс, Мириам Маргулис, Роб Брайдон, Ник Парк, Джонни Вегас ...

    Описание

    Каменный век и даже более поздние цивилизации — всё равно дикие предки, но как же они были похожи на нас. У них тоже было слишком много родственников, а мужчины боролись за любимую женщину. Они тоже обожали драгоценности, играли в кожаный мяч, и каждый стремился стать первым…

    Возраст: 6+ (зрителям, достигшим 6 лет)
    Рейтинг MPAA: PG (рекомендуется присутствие родителей)
    Дата мировой премьеры: 20 января 2018, ...
    Дата российской премьеры: 22 марта 2018, Вольга
    Цифровой релиз: 22 мая 2018, Вольга
    Продолжительность: 01: 24: 58
    Качество видео: WEBRip 1080p
    Перевод: Отсутствует
    Язык озвучки: Английский
    Субтитры: Английские (отдельным файлом)
    Видео: AVC, 1920x1040 (16: 9), 29.970 fps, 4 260 Kbps (0.071 bit/pixel)
    Аудио: AC-3, 48.0 KHz, 6 ch, 448 Kbps, CBR (English)
    General
    Complete name : Early.Man.2018.WEBRip.1080p.EN.mkv
    Format : Matroska
    Format version : Version 4/Version 2
    File size : 2.79 GiB
    Duration : 1 h 24 min
    Overall bit rate : 4 694 kb/s
    Encoded date : UTC 2018-05-10 20: 13: 13
    Writing application : mkvmerge v22.0.0 (\'At The End Of The World\') 64-bit
    Writing library : libebml v1.3.5 + libmatroska v1.4.8
    Video
    ID : 1
    Format : AVC
    Format/Info : Advanced Video Codec
    Format profile : High@L4.1
    Format settings : CABAC/4 Ref Frames
    Format settings, CABAC : Yes
    Format settings, ReFrames : 4 frames
    Codec ID : V_MPEG4/ISO/AVC
    Duration : 1 h 24 min
    Bit rate : 4 260 kb/s
    Width : 1 920 pixels
    Height : 1 040 pixels
    Display aspect ratio : 1.85: 1
    Frame rate mode : Constant
    Frame rate : 29.970 (30000/1001) FPS
    Color space : YUV
    Chroma subsampling : 4: 2: 0
    Bit depth : 8 bits
    Scan type : Progressive
    Bits/(Pixel*Frame) : 0.071
    Stream size : 2.52 GiB (90%)
    Writing library : x264 core 130 r2273 b3065e6
    Encoding settings : cabac=1/ref=1/deblock=1: 0: 0/analyse=0x3: 0x113/me=hex/subme=2/psy=1/psy_rd=1.00: 0.00/mixed_ref=0/me_range=16/chroma_me=1/trellis=0/8x8dct=1/cqm=0/deadzone=21, 11/fast_pskip=1/chroma_qp_offset=0/threads=6/lookahead_threads=2/sliced_threads=0/nr=0/decimate=1/interlaced=0/bluray_compat=0/constrained_intra=0/bframes=3/b_pyramid=2/b_adapt=1/b_bias=0/direct=1/weightb=1/open_gop=0/weightp=1/keyint=300/keyint_min=30/scenecut=40/intra_refresh=0/rc_lookahead=10/rc=abr/mbtree=1/bitrate=4260/ratetol=1.0/qcomp=0.60/qpmin=0/qpmax=69/qpstep=4/vbv_maxrate=62500/vbv_bufsize=78125/nal_hrd=none/ip_ratio=1.40/aq=1: 1.00
    Language : English
    Default : Yes
    Forced : No
    Color range : Limited
    Color primaries : BT.709
    Transfer characteristics : BT.709
    Matrix coefficients : BT.709
    Audio
    ID : 2
    Format : AC-3
    Format/Info : Audio Coding 3
    Codec ID : A_AC3
    Duration : 1 h 24 min
    Bit rate mode : Constant
    Bit rate : 448 kb/s
    Channel(s) : 6 channels
    Channel positions : Front: L C R, Side: L R, LFE
    Sampling rate : 48.0 kHz
    Frame rate : 31.250 FPS (1536 SPF)
    Bit depth : 16 bits
    Compression mode : Lossy
    Stream size : 272 MiB (10%)
    Language : English
    Service kind : Complete Main
    Default : Yes
    Forced : No

    Скриншоты для ознакомления





    Все одноименные релизы в Клубе
    Время раздачи: 24/7 (круглосуточно) (до появления первых 3-5 скачавших)


    Онлайн видео Дикие предки



    Дикие предки/Early Man (2018) WEBRip [H.264/1080p-LQ] [EN/EN Sub]
    Рейтинг →
     (голосов: 1, оценка 3/5, голосовать можно 1 раз )

    Другие торренты по теме:

  • Дикие предки / Early Man (2018) BDRip [H.264 / 1080p] [EN / EN Sub]
  • Дикие предки / Early Man (2018) AC3 5.1 [hand made]
  • Дикие предки / Early Man (2018) BDRip [H.264]
  • Дикие предки / Early Man (2018) BDRip [H.264 / 1080p]
  • Дикие предки / Early Man (2018) BDRip [H.265 / 1080p-LQ] [10-bit]
  • Дикие предки / Early Man (2018) UHD BDRemux [H.265 / 2160p] [4K, HDR, 10-bit]
  • Дикие предки / Early Man (2018) UHD BDRemux [H.265 / 2160p] [4K, HDR, Dolby Vision, 10-bit]


    • Комментарии (0):

      Информация

      Информация

        Посетители, находящиеся в группе Гости, не могут оставлять комментарии в данной новости.

        ↓ Меню




        ↓ Опрос

        Вы добавили сайт в закладки?
        Да
        Нет


        Top 10 за месяц (Мультфильмы)