.
Авторизация | Регистрация
Хочешь лучшие торренты? Добавь свой email!
Добавить

Торрент скачать бесплатно

  • support: webmaster@btracker.org
» » Сероманец (1989) DVDRip торрент скачать бесплатно


    Сероманец (1989) DVDRip торрент скачать бесплатно

    Опубликовал: Админ | Дата: 11-05-2018, 05:00 | .torrent скачали: 0

    Сероманец (1989) DVDRipПроизводство: СССР
    Жанр: Драма, детский
    Режиссер: Петр Марусык

    Актеры
    Женя Забродин, Лесь Сердюк, Константин Артеменко, Таисия Литвиненко, Оксана Коноваленко, Таня Макарова, Василий Мазур, Людмила Никончук, Станислав Рий, Осип Найдук

    Описание

    После жестокой охоты из большой стаи волков уцелел только один — Сероманец. Он прятался в овраге возле села, где жил его друг — мальчик Сашко, подкармливавший волка и спасавший его от охотников. Но пришла еще одна беда — старый волк ослеп…

    Продолжительность: 01: 24: 54
    Качество видео: DVDRip
    Субтитры: Отсутствуют
    Видео: Xvid, 704x528 (4: 3), ~2250 Kbps
    Аудио: AC3, 2 ch, 192 Kbps

    Общее
    Полное имя : D: Сероманец (1989).avi
    Формат : AVI
    Формат/Информация : Audio Video Interleave
    Размер файла : 1, 45 Гбайт
    Продолжительность : 1 ч. 24 м.
    Общий поток : 2452 Кбит/сек
    Библиотека кодирования : VirtualDub build 35491/release
    Видео
    Идентификатор : 0
    Формат : MPEG-4 Visual
    Профиль формата : Advanced Simple@L5
    Настройки формата : BVOP2
    Параметр BVOP формата : 2
    Параметр QPel формата : Нет
    Параметр GMC формата : Без точки перехода
    Параметр матрицы формата : Default (H.263)
    Идентификатор кодека : XVID
    Идентификатор кодека/Подсказка : XviD
    Продолжительность : 1 ч. 24 м.
    Битрейт : 2250 Кбит/сек
    Ширина : 704 пикселя
    Высота : 528 пикселей
    Соотношение сторон : 4: 3
    Частота кадров : 25, 000 кадров/сек
    Цветовое пространство : YUV
    Субдискретизация насыщенности : 4: 2: 0
    Битовая глубина : 8 бит
    Тип развёртки : Прогрессивная
    Метод сжатия : С потерями
    Бит/(Пиксели*Кадры) : 0.242
    Размер потока : 1, 33 Гбайт (92%)
    Библиотека кодирования : XviD 1.2.1 (UTC 2008-12-04)
    Аудио
    Идентификатор : 1
    Формат : AC-3
    Формат/Информация : Audio Coding 3
    Идентификатор кодека : 2000
    Продолжительность : 1 ч. 24 м.
    Вид битрейта : Постоянный
    Битрейт : 192 Кбит/сек
    Каналы : 2 канала
    Расположение каналов : Front: L R
    Частота : 48, 0 КГц
    Частота кадров : 31, 250 кадров/сек (1536 SPF)
    Битовая глубина : 16 бит
    Метод сжатия : С потерями
    Размер потока : 117 Мбайт (8%)
    Выравнивание : Соединение по промежуткам
    Продолжительность промежутка : 40 мс. (1, 00 видеокадр)
    Время предзагрузки промежутка : 512 мс.
    ServiceKind/String : Complete Main

    Скриншоты для ознакомления



    Все одноименные релизы в Клубе
    Время раздачи: 24/7 (круглосуточно) (до появления первых 3-5 скачавших)


    Сероманец (1989) DVDRip
    Рейтинг →
     (голосов: 1, оценка 5/5, голосовать можно 1 раз )

    Другие торренты по теме:



      Комментарии (0):

      Информация

      Информация

        Посетители, находящиеся в группе Гости, не могут оставлять комментарии в данной новости.

        ↓ Меню




        ↓ Опрос

        Вы добавили сайт в закладки?
        Да
        Нет


        Top 10 за месяц (Мультфильмы)