.
Авторизация | Регистрация
Хочешь лучшие торренты? Добавь свой email!
Добавить

Торрент скачать бесплатно

  • support: webmaster@btracker.org
» » Расти-механик / Rusty Rivets (2016) WEB-DL [H.264] (Серии 1-23) торрент скачать бесплатно


    Расти-механик / Rusty Rivets (2016) WEB-DL [H.264] (Серии 1-23) торрент скачать бесплатно

    Опубликовал: Админ | Дата: 5-04-2018, 05:00 | .torrent скачали: 104

    Расти-механик / Rusty Rivets (2016) WEB-DL [H.264] (Серии 1-23)Производство: Канада
    Жанр: Детский, Компьютерная анимация
    Режиссер: Пол Х. Браун, Рик Маршалл, Брэд Фергюсон

    Описание

    Изобретатель Расти постоянно занят разработками конструкций, проводит множество опытов, выпутывается из непредсказуемых ситуаций и использует знания и смекалку. Вместе со своей отважной командой Расти готов сконструировать все что угодно, используя самые невероятные подручные средства.

    Возраст: 0+ (для любой зрительской аудитории)
    Рейтинг MPAA: G (нет возрастных ограничений)
    Релиз от: PATRON_
    Продолжительность: серия по ~ 00: 23: 11
    Качество видео: WEB-DL
    Перевод: Полный дубляж, вкл. песни
    Субтитры: Отсутствуют
    Видео: AVC/H.264, 1920x1080, ~3200 Kbps
    Аудио: AC3, 2 ch, 384
    Расти готовое
    1 19. Вторжение инопланетян - Шагающая машина 1080p Готово Новый .mkv 688, 725, 616
    2 02. Раскопки Расти - Пещерные работы Расти 1080p Готово Новый.mkv 582, 752, 890
    3 03. Погружение Расти-Большие хлопоты Расти 1080p Готово Новый.mkv 580, 912, 026
    4 04. Расти и пиратская карта - Умножение ботов 1080p Готово Новый.mkv 594, 574, 469
    5 05. Бот в лесу - Расти добывает потерянное 1080p Готово Новый.mkv 590, 048, 407
    6 06. Расти и мартышкины трудности-Ночные огни 1080p Готово Новый.mkv 557, 454, 247
    7 07. Лыжный поход Расти - Ночной вор в лагере.1080p Готово Новый.mkv 574, 133, 755
    8 08. Расти и Механика - Сбиватель шариков Расти 1080p Готово Новый.mkv 589, 543, 023
    9 09. Пернатые друзья Расти - Броскобот Расти 1080p Готово Новый.mkv 601, 781, 436
    10 10. Пингвиньи проблемы Расти - Печаный замок 1080p Готово Новый .mkv 580, 539, 528
    11 11. Космический бот Расти - Чихающаая рыба 1080p Готово Новый .mkv 597, 794, 312
    12 12. Водные работы Расти - Мусорная гонка 1080p Готово Новый .mkv 636, 249, 067
    13 13. Расти в Лиамленде - Расти в пылесосе 1080p Готовый Новый.mkv 614, 795, 829
    14 14. Капитан Рожок - Расти ловец чудовищ 1080p Готово Новый.mkv 600, 852, 261
    15 15. Расти на коньках - Лесное приключение 1080p Готово Новый.mkv 636, 147, 489
    16 16. Механический питомец - Звездолет Расти 1080p Готово Новый.mkv 651, 950, 363
    17 17. Боты полицейские - Бобровая плотина 1080p Готово Новый.mkv 639, 632, 312
    18 18. Бото-Завро дом - Бульдозерные проблемы 1080p. Готово Новый.mkv 644, 978, 354
    19 01. Дино-спаситель Расти -Летающие машины 1080p Готово Новый.mkv 613, 130, 978
    20 20. Персиковый день - Обезьяньи заботы Расти 1080p Готово Новый..mkv 664, 322, 558
    21 21. Расти возится с питомцем - Расти и суперклей 1080p Готово Новый.mkv 642, 298, 228
    22 22. Загадочная загадка -Большой лабиринт Расти 1080p Готово Новый.mkv 663, 226, 459
    23 23. Жуткое приключение - Расти теряет ботов 1080p Готово Новый.mkv

    General
    Unique ID : 70784763220557444897167022194199328997 (0x3540A6463D89BB3499F26C040ABF78E5)
    Complete name : E: Расти готовое1. Дино-спаситель Расти -Летающие машины 1080p Готово Новый.mkv
    Format : Matroska
    Format version : Version 4/Version 2
    File size : 585 MiB
    Duration : 23 min 11 s
    Overall bit rate : 3 526 kb/s
    Movie name : Rusty Rivets S01E05 - RMTeam, RMZ.cr
    Encoded date : UTC 2018-03-23 08: 05: 19
    Writing application : mkvmerge v21.0.0 (\'Tardigrades Will Inherit The Earth\') 64-bit
    Writing library : libebml v1.3.5 + libmatroska v1.4.8
    Cover : Yes
    Attachments : cover.jpg
    Video
    ID : 1
    Format : AVC
    Format/Info : Advanced Video Codec
    Format profile : High@L4
    Format settings : CABAC/4 Ref Frames
    Format settings, CABAC : Yes
    Format settings, RefFrames : 4 frames
    Codec ID : V_MPEG4/ISO/AVC
    Duration : 23 min 10 s
    Bit rate : 3 138 kb/s
    Width : 1 920 pixels
    Height : 1 080 pixels
    Display aspect ratio : 16: 9
    Frame rate mode : Variable
    Frame rate : 23.976 (23976/1000) FPS
    Color space : YUV
    Chroma subsampling : 4: 2: 0
    Bit depth : 8 bits
    Scan type : Progressive
    Bits/(Pixel*Frame) : 0.063
    Stream size : 520 MiB (89%)
    Writing library : x264 core 148
    Encoding settings : cabac=1/ref=4/deblock=1: 0: 0/analyse=0x3: 0x113/me=umh/subme=10/psy=1/psy_rd=1.00: 0.15/mixed_ref=1/me_range=32/chroma_me=1/trellis=2/8x8dct=1/cqm=0/deadzone=21, 11/fast_pskip=1/chroma_qp_offset=-3/threads=24/lookahead_threads=6/sliced_threads=0/nr=0/decimate=1/interlaced=0/bluray_compat=0/constrained_intra=0/bframes=3/b_pyramid=0/b_adapt=2/b_bias=0/direct=3/weightb=1/open_gop=0/weightp=2/keyint=48/keyint_min=4/scenecut=0/intra_refresh=0/rc_lookahead=48/rc=crf/mbtree=1/crf=19.0/qcomp=0.75/qpmin=10/qpmax=51/qpstep=4/vbv_maxrate=5000/vbv_bufsize=10000/crf_max=0.0/nal_hrd=none/filler=0/ip_ratio=1.40/aq=1: 0.80
    Default : Yes
    Forced : No
    Audio
    ID : 2
    Format : AC-3
    Format/Info : Audio Coding 3
    Format settings, Endianness : Big
    Codec ID : A_AC3
    Duration : 23 min 11 s
    Bit rate mode : Constant
    Bit rate : 384 kb/s
    Channel(s) : 2 channels
    Channel positions : Front: L R
    Sampling rate : 48.0 kHz
    Frame rate : 31.250 FPS (1536 SPF)
    Bit depth : 16 bits
    Compression mode : Lossy
    Delay relative to video : 159 ms
    Stream size : 63.7 MiB (11%)
    Service kind : Complete Main
    Default : Yes
    Forced : No

    Скриншоты для ознакомления



    Все одноименные релизы в Клубе
    Время раздачи: Пн-Пт с 10: 00 до 21: 00 (до появления первых 3-5 скачавших)


    Онлайн видео Расти-механик



    Расти-механик/Rusty Rivets (2016) WEB-DL [H.264] (Серии 1-23)
    Рейтинг →
     (голосов: 1, оценка 5/5, голосовать можно 1 раз )

    Другие торренты по теме:



      Комментарии (0):

      Информация

      Информация

        Посетители, находящиеся в группе Гости, не могут оставлять комментарии в данной новости.

        ↓ Меню




        ↓ Опрос

        Вы добавили сайт в закладки?
        Да
        Нет


        Top 10 за месяц (Мультфильмы)