.
Авторизация | Регистрация
Хочешь лучшие торренты? Добавь свой email!
Добавить

Торрент скачать бесплатно

» » Возвращение в Простоквашино (2018) WEB-DLRip (серия 1 из 30) [Обновляемая] торрент скачать бесплатно


    Возвращение в Простоквашино (2018) WEB-DLRip (серия 1 из 30) [Обновляемая] торрент скачать бесплатно

    Опубликовал: Админ | Дата: 4-04-2018, 05:00 | .torrent скачали: 10

    Возвращение в Простоквашино (2018) WEB-DLRip (серия 1 из 30) [Обновляемая]Год выпуска: 2018
    Производство: Россия (Союзмультфильм)
    Жанр: Мультсериал для детей
    Режиссер: Михаил Солошенко
    Продюсер: Алена Оятьева
    Сценарий: Максим Кучин
    Роли озвучивали: Иван Охлобыстин, Гарик Сукачев, Юлия Меньшова, Алексей Онежен, Антон Табаков
    Персонажи: Дядя Фёдор, Матроскин, Шарик, Печкин...

    Описание

    Мультфильм про приключения 9-ти летнего Дяди Федора и его друзей — пса Шарика и кота Матроскина, которые живут в маленькой деревне Простоквашино.
    Возвращение в Простоквашино — продолжение серии советских мультфильмов Трое из Простоквашино, Зима в Простоквашино и Каникулы в Простоквашино, снятых по мотивам произведений Эдуарда Успенского.
    Возраст: 0+ (для любой зрительской аудитории)
    Рейтинг MPAA: G (нет возрастных ограничений)
    Релиз от: Natasha77
    Продолжительность: ~00: 06: 30 серия
    Качество видео: WEB-DLRip
    Перевод: Не требуется
    Видеокодек: DivX
    Битрейт видео: ~2500 Kbps
    Размер кадра: 720x400 (16: 9)
    Аудиокодек: MP3, 2.0
    Битрейт аудио: 192 Kbps
    Код: выделить все

    General
    Complete name : C:1_Возвращение в Простоквашино - часть 1.avi
    Format : AVI
    Format/Info : Audio Video Interleave
    File size : 118 MiB
    Duration : 6 min 30 s
    Overall bit rate : 2 537 kb/s
    Video
    ID : 0
    Format : MPEG-4 Visual
    Format profile : Advanced Simple@L4
    Format settings : BVOP2
    Format settings, BVOP : 2
    Format settings, QPel : No
    Format settings, GMC : No warppoints
    Format settings, Matrix : Default (H.263)
    Codec ID : DIVX
    Codec ID/Info : Project Mayo
    Codec ID/Hint : DivX 4
    Duration : 6 min 30 s
    Bit rate : 2 327 kb/s
    Width : 720 pixels
    Height : 400 pixels
    Display aspect ratio : 16:9
    Frame rate : 25.000 FPS
    Color space : YUV
    Chroma subsampling : 4:2:0
    Bit depth : 8 bits
    Scan type : Progressive
    Compression mode : Lossy
    Bits/(Pixel*Frame) : 0.323
    Stream size : 108 MiB (92%)
    Writing library : XviD 64
    Audio
    ID : 1
    Format : MPEG Audio
    Format version : Version 1
    Format profile : Layer 3
    Codec ID : 55
    Codec ID/Hint : MP3
    Duration : 6 min 30 s
    Bit rate mode : Constant
    Bit rate : 192 kb/s
    Channel(s) : 2 channels
    Sampling rate : 44.1 kHz
    Compression mode : Lossy
    Stream size : 8.93 MiB (8%)
    Alignment : Aligned on interleaves
    Interleave, duration : 26 ms (0.65 video frame)
    Writing library : LAME3.99.5UUUUUлнhµD
    01. Возвращение в Простоквашино - часть 1

    Скриншоты для ознакомления


    03.04.2018. Добавлена 1-я серия - Возвращение в Простоквашино - часть 1
    Возвращение в Простоквашино на NoNaMe Club


    Онлайн видео Возвращение в Простоквашино (2018) WEB



    Возвращение в Простоквашино (2018) WEB-DLRip (серия 1 из 30) [Обновляемая]
    Рейтинг →
     (голосов: 1, оценка 5/5, голосовать можно 1 раз )

    Другие торренты по теме:

  • Возвращение в Простоквашино (2018) WEB-DLRip [H.264 / 1080p-LQ] (серия 1 из 30) [Обновляемая]
  • Возвращение в Простоквашино (2018) WEB-DLRip [H.264 / 720p-LQ] (серия 1 из 30) [Обновляемая]


    • Комментарии (0):

      Информация

      Информация

        Посетители, находящиеся в группе Гости, не могут оставлять комментарии в данной новости.

        ↓ Меню




        ↓ Опрос

        Вы добавили сайт в закладки?
        Да
        Нет


        Top 10 за месяц (Мультфильмы)