.
Авторизация | Регистрация
Хочешь лучшие торренты? Добавь свой email!
Добавить

Торрент скачать бесплатно

» » Возвращение в Простоквашино (2018) WEB-DLRip [H.264 / 1080p-LQ] (серия 1 из 30) [Обновляемая] торрент скачать бесплатно


    Возвращение в Простоквашино (2018) WEB-DLRip [H.264 / 1080p-LQ] (серия 1 из 30) [Обновляемая] торрент скачать бесплатно

    Опубликовал: Админ | Дата: 4-04-2018, 05:00 | .torrent скачали: 10

    Возвращение в Простоквашино (2018) WEB-DLRip [H.264 / 1080p-LQ] (серия 1 из 30) [Обновляемая]Год выпуска: 2018
    Производство: Россия (Союзмультфильм)
    Жанр: Мультсериал для детей
    Режиссер: Михаил Солошенко
    Продюсер: Алена Оятьева
    Сценарий: Максим Кучин
    Роли озвучивали: Иван Охлобыстин, Гарик Сукачев, Юлия Меньшова, Алексей Онежен, Антон Табаков
    Персонажи: Дядя Фёдор, Матроскин, Шарик, Печкин...

    Описание

    Мультфильм про приключения 9-ти летнего Дяди Федора и его друзей — пса Шарика и кота Матроскина, которые живут в маленькой деревне Простоквашино.
    Возвращение в Простоквашино — продолжение серии советских мультфильмов Трое из Простоквашино, Зима в Простоквашино и Каникулы в Простоквашино, снятых по мотивам произведений Эдуарда Успенского.
    Возраст: 0+ (для любой зрительской аудитории)
    Рейтинг MPAA: G (нет возрастных ограничений)
    Релиз от: Natasha77
    Продолжительность: ~ 00: 06: 30 серия
    Качество видео: WEB-DLRip
    Перевод: Не требуется (Русский)
    Видео: AVC/H.264, 1920x1080, ~5000 kbps
    Аудио: AAC, 2 ch, 192 kbps
    Код: выделить все

    General
    Unique ID : 117573829970985342178379881817046355017 (0x5873E55F0F352DED34AA181C8FF58C49)
    Complete name : C:1_Возвращение в Простоквашино - часть 1.mkv
    Format : Matroska
    Format version : Version 4/Version 2
    File size : 236 MiB
    Duration : 6 min 30 s
    Overall bit rate : 5 081 kb/s
    Encoded date : UTC 2018-04-03 08:15:02
    Writing application : mkvmerge v22.0.0 (\'At The End Of The World\') 32-bit
    Writing library : libebml v1.3.5 + libmatroska v1.4.8
    Video
    ID : 1
    Format : AVC
    Format/Info : Advanced Video Codec
    Format profile : High@L4
    Format settings : CABAC/4 Ref Frames
    Format settings, CABAC : Yes
    Format settings, ReFrames : 4 frames
    Codec ID : V_MPEG4/ISO/AVC
    Duration : 6 min 30 s
    Bit rate : 4 950 kb/s
    Width : 1 920 pixels
    Height : 1 080 pixels
    Display aspect ratio : 16:9
    Frame rate mode : Constant
    Frame rate : 25.000 FPS
    Color space : YUV
    Chroma subsampling : 4:2:0
    Bit depth : 8 bits
    Scan type : Progressive
    Bits/(Pixel*Frame) : 0.095
    Stream size : 227 MiB (96%)
    Writing library : x264 core 148
    Encoding settings : cabac=1/ref=2/deblock=1:0:0/analyse=0x3:0x113/me=hex/subme=6/psy=1/psy_rd=1.00:0.00/mixed_ref=1/me_range=16/chroma_me=1/trellis=1/8x8dct=1/cqm=0/deadzone=21, 11/fast_pskip=1/chroma_qp_offset=-2/threads=6/lookahead_threads=1/sliced_threads=0/nr=0/decimate=1/interlaced=0/bluray_compat=0/constrained_intra=0/bframes=3/b_pyramid=2/b_adapt=1/b_bias=0/direct=1/weightb=1/open_gop=0/weightp=1/keyint=250/keyint_min=25/scenecut=40/intra_refresh=0/rc_lookahead=30/rc=cbr/mbtree=1/bitrate=4950/ratetol=1.0/qcomp=0.60/qpmin=0/qpmax=69/qpstep=4/vbv_maxrate=4950/vbv_bufsize=9900/nal_hrd=none/filler=0/ip_ratio=1.40/aq=1:1.00
    Default : Yes
    Forced : No
    Audio
    ID : 2
    Format : AAC
    Format/Info : Advanced Audio Codec
    Format profile : LC
    Codec ID : A_AAC-2
    Duration : 6 min 30 s
    Bit rate : 192 kb/s
    Channel(s) : 2 channels
    Channel positions : Front: L R
    Sampling rate : 44.1 kHz
    Frame rate : 43.066 FPS (1024 SPF)
    Compression mode : Lossy
    Delay relative to video : -80 ms
    Stream size : 8.93 MiB (4%)
    Default : Yes
    Forced : No
    01. Возвращение в Простоквашино - часть 1

    Скриншоты для ознакомления


    03.04.2018. Добавлена 1-я серия - Возвращение в Простоквашино - часть 1
    Возвращение в Простоквашино на NoNaMe Club


    Онлайн видео Возвращение в Простоквашино (2018) WEB-DLRip [H.264



    Возвращение в Простоквашино (2018) WEB-DLRip [H.264/1080p-LQ] (серия 1 из 30) [Обновляемая]
    Рейтинг →
     (голосов: 1, оценка 5/5, голосовать можно 1 раз )

    Другие торренты по теме:

  • Возвращение в Простоквашино (2018) WEB-DLRip [H.264 / 720p-LQ] (серия 1 из 30) [Обновляемая]
  • Возвращение в Простоквашино (2018) WEB-DLRip (серия 1 из 30) [Обновляемая]


    • Комментарии (0):

      Информация

      Информация

        Посетители, находящиеся в группе Гости, не могут оставлять комментарии в данной новости.

        ↓ Меню




        ↓ Опрос

        Вы добавили сайт в закладки?
        Да
        Нет


        Top 10 за месяц (Мультфильмы)