.
Авторизация | Регистрация
Хочешь лучшие торренты? Добавь свой email!
Добавить

Торрент скачать бесплатно

» » Горбун из Нотр Дама 2 / The Hunchback of Notre Dame 2 (2002) BDRip [H.265 / 1080p] [10-bit] торрент скачать бесплатно


    Горбун из Нотр Дама 2 / The Hunchback of Notre Dame 2 (2002) BDRip [H.265 / 1080p] [10-bit] торрент скачать бесплатно

    Опубликовал: Админ | Дата: 3-04-2018, 05:00 | .torrent скачали: 0

    Горбун из Нотр Дама 2 / The Hunchback of Notre Dame 2 (2002) BDRip [H.265 / 1080p] [10-bit]Производство: США/DisneyToon Studios, Walt Disney Animation Japan, Walt Disney Pictures, Walt Disney Television Animation
    Жанр: Мультфильм, Музыкальный, Драма, Мелодрама, Семейный
    Режиссер: Брэдли Рэймонд
    Персонажи: Том Халс, Джейсон Александер, Дженнифер Лав Хьюитт, Пол Кандел, Чарльз Кимбро, Кевин Клайн, Майкл МакКин, Деми Мур, Хэйли Джоэл Осмент, Джейн Уизерс

    Описание

    Прошло шесть лет с момента первой встречи героев. Теперь, когда нет Фролло, Квазимодо звонит в колокол с помощью своего нового друга - малыша Зефира, сына Эсмеральды и Фоэбуса. Когда Квазимодо случайно заходит в странствующий цирк злого волшебника Саруша, он влюбляется в его ассистентку Мэделин. Но жадный Саруш заставляет Мэделин, обманув Квазимодо, помочь украсть знаменитый колокол из Нотр-Дамского собора, нужный ему, чтобы при помощи волшебства добиться могущества...

    Возраст: 6+ (зрителям, достигшим 6 лет)
    Рейтинг MPAA: G (нет возрастных ограничений)
    Релиз от: Goor80
    Продолжительность: 01: 05: 59
    Качество видео: BDRip
    Перевод: Дублированный
    Субтитры: русские, английские
    Видео: HEVC/H.265, 1792x1072, ~11, 2 Mbps
    Аудио 1: AC3, 6 ch, 640 Kbps (русский)
    Аудио 2: AC3, 2 ch, 320 Kbps (английский)

    Общее
    Уникальный идентификатор : 221945577720176487765982438519725646684 (0xA6F929D59A2B32DD88F909460E1C635C)
    Полное имя : E: VideoГорбун из Нотр Дама 2 (The Hunchback of Notre Dame 2).mkv
    Формат : Matroska
    Версия формата : Version 4/Version 2
    Размер файла : 5, 62 Гбайт
    Продолжительность : 1 ч. 5 м.
    Общий поток : 12, 2 Мбит/сек
    Название фильма : Горбун из Нотр Дама 2/The Hunchback of Notre Dame 2
    Дата кодирования : UTC 2017-10-03 03: 57: 49
    Программа кодирования : mkvmerge v15.0.0 (\'Duel with the Devil\') 64-bit
    Библиотека кодирования : libebml v1.3.5 + libmatroska v1.4.5
    Авторское право : Encoded by Goor80
    Обложка : Yes
    Attachments : cover.png
    Released by : Buba5473 for NNM-Club
    Видео
    Идентификатор : 1
    Формат : HEVC
    Формат/Информация : High Efficiency Video Coding
    Профиль формата : Main 10@L4@Main
    Идентификатор кодека : V_MPEGH/ISO/HEVC
    Продолжительность : 1 ч. 5 м.
    Битрейт : 11, 2 Мбит/сек
    Ширина : 1792 пикселя
    Высота : 1072 пикселя
    Соотношение сторон : 5: 3
    Режим частоты кадров : Постоянный
    Частота кадров : 23, 976 (24000/1001) кадра/сек
    Цветовое пространство : YUV
    Субдискретизация насыщенности : 4: 2: 0
    Битовая глубина : 10 бит
    Бит/(Пиксели*Кадры) : 0.244
    Размер потока : 5, 16 Гбайт (92%)
    Default : Да
    Forced : Нет
    Аудио #1
    Идентификатор : 2
    Формат : AC-3
    Формат/Информация : Audio Coding 3
    Параметр Endianness формата : Big
    Идентификатор кодека : A_AC3
    Продолжительность : 1 ч. 5 м.
    Вид битрейта : Постоянный
    Битрейт : 640 Кбит/сек
    Каналы : 6 каналов
    Расположение каналов : Front: L C R, Side: L R, LFE
    Частота : 48, 0 КГц
    Частота кадров : 31, 250 кадров/сек (1536 spf)
    Битовая глубина : 16 бит
    Метод сжатия : С потерями
    Размер потока : 302 Мбайт (5%)
    Заголовок : Перевод: Профессиональный (полное дублирование)
    Язык : Russian
    ServiceKind/String : Complete Main
    Default : Да
    Forced : Нет
    Аудио #2
    Идентификатор : 3
    Формат : AC-3
    Формат/Информация : Audio Coding 3
    Режим : Dolby Digital
    Параметр Endianness формата : Big
    Идентификатор кодека : A_AC3
    Продолжительность : 1 ч. 5 м.
    Вид битрейта : Постоянный
    Битрейт : 320 Кбит/сек
    Каналы : 2 канала
    Расположение каналов : Front: L R
    Частота : 48, 0 КГц
    Частота кадров : 31, 250 кадров/сек (1536 spf)
    Битовая глубина : 16 бит
    Метод сжатия : С потерями
    Размер потока : 151 Мбайт (3%)
    Язык : English
    ServiceKind/String : Complete Main
    Default : Нет
    Forced : Нет
    Текст #1
    Идентификатор : 4
    Формат : PGS
    Режим смешивания : zlib
    Идентификатор кодека : S_HDMV/PGS
    Идентификатор кодека/Информация : Picture based subtitle format used on BDs/HD-DVDs
    Продолжительность : 1 ч. 2 м.
    Битрейт : 35, 9 Кбит/сек
    ElementCount : 1928
    Размер потока : 16, 1 Мбайт (0%)
    Язык : English
    Default : Нет
    Forced : Нет
    Текст #2
    Идентификатор : 5
    Формат : PGS
    Режим смешивания : zlib
    Идентификатор кодека : S_HDMV/PGS
    Идентификатор кодека/Информация : Picture based subtitle format used on BDs/HD-DVDs
    Продолжительность : 58 м. 49 с.
    Битрейт : 31, 1 Кбит/сек
    ElementCount : 1544
    Размер потока : 13, 1 Мбайт (0%)
    Язык : English
    Default : Нет
    Forced : Нет
    Текст #3
    Идентификатор : 6
    Формат : PGS
    Режим смешивания : zlib
    Идентификатор кодека : S_HDMV/PGS
    Идентификатор кодека/Информация : Picture based subtitle format used on BDs/HD-DVDs
    Продолжительность : 58 м. 49 с.
    Битрейт : 30, 2 Кбит/сек
    ElementCount : 1554
    Размер потока : 12, 7 Мбайт (0%)
    Язык : Russian
    Default : Да
    Forced : Нет
    Меню
    00: 00: 00.000 : en: 00: 00: 00.000
    00: 03: 44.975 : en: 00: 03: 44.975
    00: 06: 59.836 : en: 00: 06: 59.836
    00: 08: 11.366 : en: 00: 08: 11.366
    00: 10: 59.409 : en: 00: 10: 59.409
    00: 14: 03.509 : en: 00: 14: 03.509
    00: 20: 07.748 : en: 00: 20: 07.748
    00: 21: 37.046 : en: 00: 21: 37.046
    00: 24: 34.932 : en: 00: 24: 34.932
    00: 26: 42.142 : en: 00: 26: 42.142
    00: 28: 33.670 : en: 00: 28: 33.670
    00: 29: 25.514 : en: 00: 29: 25.514
    00: 31: 53.912 : en: 00: 31: 53.912
    00: 34: 23.019 : en: 00: 34: 23.019
    00: 38: 24.093 : en: 00: 38: 24.093
    00: 40: 42.690 : en: 00: 40: 42.690
    00: 42: 39.348 : en: 00: 42: 39.348
    00: 44: 22.785 : en: 00: 44: 22.785
    00: 45: 28.643 : en: 00: 45: 28.643
    00: 48: 05.007 : en: 00: 48: 05.007
    00: 52: 25.392 : en: 00: 52: 25.392
    00: 54: 19.381 : en: 00: 54: 19.381
    00: 56: 47.487 : en: 00: 56: 47.487
    00: 59: 51.630 : en: 00: 59: 51.630
    XMP
    Xmp.video.FileName : E: VideoГорбун из Нотр Дама 2 (The Hunchback of Notre Dame 2).mkv
    Xmp.video.FileSize : -9.53674e-007
    Xmp.video.MimeType : video/matroska
    Xmp.video.EBMLVersion : 1
    Xmp.video.EBMLReadVersion : 1
    Xmp.video.DocType : matroska
    Xmp.video.DocTypeVersion : 4
    Xmp.video.DocTypeReadVersion : 2
    Xmp.video.TimecodeScale : 0.001
    Xmp.video.MuxingApp : libebml v1.3.5 + libmatroska v1.4.5
    Xmp.video.WritingApp : mkvmerge v15.0.0 (\'Duel with the Devil\') 64-bit
    Xmp.video.Duration : 3958528
    Xmp.video.DateUTC : 528695869
    Xmp.video.Title : Горбун из Нотр Дама 2/The Hunchback of Notre Dame 2
    Xmp.video.TotalStream : 19
    Xmp.video.TrackLacing : No
    Xmp.video.Codec : V_MPEGH/ISO/HEVC
    Xmp.video.TrackLang : und
    Xmp.video.Width : 1792
    Xmp.video.Height : 1072
    Xmp.video.FrameRate : 23.976
    Xmp.audio.Compressor : A_AC3
    Xmp.audio.DefaultDuration : 32000
    Xmp.audio.TrackLang : rus
    Xmp.video.TrackName : Перевод: ПрофессионаРьный (РїРѕРРЅРѕРµ РґСѓР±Рирование)
    Xmp.audio.SampleRate : 48000
    Xmp.audio.DefaultOn : No
    Xmp.audio.ChannelType : Stereo
    Xmp.video.SubTDefaultOn : No
    Xmp.video.SubTTrackLacing : No
    Xmp.video.SubTCodec : S_HDMV/PGS
    Xmp.video.SubTLang : rus
    Xmp.video.AttachFileName : cover.png
    Xmp.video.AttachFileMIME : image/png
    Xmp.video.AttachFileUID : 6219993720837234059
    Xmp.video.AspectRatio : 16: 10
    H.265/HEVC (High Efficiency Video Coding) - это новый стандарт кодирования видео.
    *Рипы в фомате HEVC, в настоящее время не поддерживается большинством аппаратных проигрывателей.
    *Для корректного воспроизведения может потребоваться обновление ПО.
    *Стандарт H.265/HEVC является логическим продолжением стандарта H.264/AVC (Advanced Video Coding), и характеризуется более эффективными алгоритмами сжатия, а также поддержкой высокого разрешения вплоть до 8K UHD (8192x4320). Первая версия стандарта H.265 была опубликована в начале 2013 года.
    Любителям решения из коробки - установить последнюю версию на выбор:
    Media Player Classic - Black Edition (MPC-BE)
    VLC media player
    Daum Pot Player
    GOM Media Player
    Любителям WMP и других плееров, использующих по умолчанию для воспроизведения системные кодеки+сплитеры - установить K-Lite Codec Pack версии 10.1.0 и выше.
    Любимые плееры, не использующии по умолчанию для воспроизведения системные кодеки+сплитеры, нужно перенастроить на использование оных.

    Скриншоты для ознакомления



    Все одноименные релизы в Клубе
    Время раздачи: с 11: 00 до 21: 00 по Новосибирску (UTC +7) (до появления первых 3-5 скачавших)


    Онлайн видео Горбун из Нотр Дама 2



    Горбун из Нотр Дама 2/The Hunchback of Notre Dame 2 (2002) BDRip [H.265/1080p] [10-bit]
    Рейтинг →
     (голосов: 1, оценка 4/5, голосовать можно 1 раз )

    Другие торренты по теме:

  • Горбун из Нотр Дама 1-2 / The Hunchback of Notre Dame 1-2 (1996 / 2002) Blu-ray Disc


    • Комментарии (0):

      Информация

      Информация

        Посетители, находящиеся в группе Гости, не могут оставлять комментарии в данной новости.

        ↓ Меню




        ↓ Опрос

        Вы добавили сайт в закладки?
        Да
        Нет


        Top 10 за месяц (Мультфильмы)