.
Авторизация | Регистрация
Хочешь лучшие торренты? Добавь свой email!
Добавить

Торрент скачать бесплатно

  • support: webmaster@btracker.org
» » Тачки: Трилогия / Cars: Trilogy (2006-2017) BDRemux [H.264 / 1080p] торрент скачать бесплатно


    Тачки: Трилогия / Cars: Trilogy (2006-2017) BDRemux [H.264 / 1080p] торрент скачать бесплатно

    Опубликовал: Админ | Дата: 3-04-2018, 05:00 | .torrent скачали: 2

    Тачки: Трилогия / Cars: Trilogy (2006-2017) BDRemux [H.264 / 1080p]Русское название: Тачки: Трилогия
    Оригинальное название: Cars: Trilogy
    Год выпуска: 2006 - 2017
    Жанр: Мультфильм, Детский, Комедия, Приключения
    Режиссер: Джон Лассетер, Джо Рэнфт, Брэд Льюис, Роб Гиббс, Victor Navone
    Производство: США
    Продолжительность: 01: 56: 36 | 01: 47: 01 | 01: 42: 25 | 00: 35: 37
    Перевод: дублированный
    Субтитры: русские, английские
    Качество: BDRemux
    Контейнер: MKV
    Видеокодек: MPEG-4 AVC/H.264
    Аудиокодек: DTS-HD MA, DTS, AC-3
    Тачки/Cars (2006) 1080 BDRemux
    Русское название: Тачки
    Оригинальное название: Cars
    Год выпуска: 2006
    Жанр: мультфильм, комедия, приключения, семейный
    Режиссер: Джон Лассетер, Бонни Хант, Дон Лейк

    Описание фильма

    Неукротимый в своем желании всегда и во всем побеждать гоночный автомобиль Молния Маккуин вдруг обнаруживает, что сбился с пути и застрял в маленьком захолустном городке Радиатор-Спрингс, что находится где-то на трассе 66 в Калифорнии.
    Участвуя в гонках на Кубок Поршня, где ему противостояли два очень опытных соперника, Маккуин совершенно не ожидал, что отныне ему придется общаться с персонажами совсем иного рода. Это, например, Салли — шикарный Порше 2002-го года выпуска, Док Хадсон — легковушка модели Хадсон Хорнет, 1951-го года выпуска или Метр — ржавый грузовичок-эвакуатор. И все они помогают Маккуину понять, что в мире существуют некоторые более важные вещи, чем слава, призы и спонсоры…
    Продолжительность: 01: 56: 36
    Качество видео: BDRemux 1080
    Контейнер: MKV
    Перевод: дублированный
    Субтитры: русские, английские
    Дата мировой премьеры: 14 марта 2006
    Дата российской премьеры: 15 июня 2006, Каскад
    Релиз на DVD: 29 января 2009, Уолт Дисней Компани СНГ
    Релиз на Blu-Ray: 27 августа 2009, Уолт Дисней Компани СНГ
    Выпущено: Walt Disney Pictures, Pixar Animation Studios (США)

    Видеокодек: MPEG-4 AVC/H.264
    Аудиокодек: AC-3, DTS
    Видео: 1920x1080, 21, 9 Mbps(1080p, 23.976 fps, 16: 9, High @L4.1)
    Аудио1: AC-3, 640 Kbps, 48.0 KГц, 16 бит, 6 ch - Русский дублированный
    Аудио2: DTS, 1510 Kbps, 48.0 KГц, 24 бит, 6 ch - English
    Аудио3: AC-3, 640 Kbps, 48.0 KГц, 16 бит, 6 ch - Украинский дублированный
    Аудио4: AC-3, 640 Kbps, 48.0 KГц, 16 бит, 6 ch - Chinese

    Скриншоты для ознакомления






    Общее
    Уникальный идентификатор : 240736309164221927833789873969108385462 (0xB51C206C450824E2A97C07ED50CC7EB6)
    Полное имя : H: torrentsCars(2006-2017)Cars.2006.1080p.BDRemux.mkv
    Формат : Matroska
    Версия формата : Version 2
    Размер файла : 21, 1 Гбайт
    Продолжительность : 1 ч. 56 м.
    Режим общего битрейта : Переменный
    Общий поток : 25, 9 Мбит/сек
    Название фильма : Тачки/Cars (2006) 1080p BDRemux
    Дата кодирования : UTC 2011-10-19 09: 58: 19
    Программа кодирования : mkvmerge v5.0.0 (\'Die Wahre Liebe\') built on Sep 25 2011 20: 33: 49
    Библиотека кодирования : libebml v1.2.2 + libmatroska v1.3.0
    Видео
    Идентификатор : 1
    Формат : AVC
    Формат/Информация : Advanced Video Codec
    Профиль формата : High@L4.1
    Настройки формата : CABAC/2 Ref Frames
    Параметр CABAC формата : Да
    Параметр RefFrames формата : 2 кадра
    Идентификатор кодека : V_MPEG4/ISO/AVC
    Продолжительность : 1 ч. 56 м.
    Вид битрейта : Переменный
    Битрейт : 21, 9 Мбит/сек
    Ширина : 1920 пикселей
    Высота : 1080 пикселей
    Соотношение сторон : 16: 9
    Режим частоты кадров : Постоянный
    Частота кадров : 23, 976 (24000/1001) кадра/сек
    Цветовое пространство : YUV
    Субдискретизация насыщенности : 4: 2: 0
    Битовая глубина : 8 бит
    Тип развёртки : Прогрессивная
    Бит/(Пиксели*Кадры) : 0.441
    Размер потока : 17, 9 Гбайт (85%)
    Заголовок : Cars (2006) 1080p BDRemux (by sergey2925 for nnm-club.me)
    Язык : English
    Default : Да
    Forced : Нет
    Аудио #1
    Идентификатор : 2
    Формат : AC-3
    Формат/Информация : Audio Coding 3
    Идентификатор кодека : A_AC3
    Продолжительность : 1 ч. 56 м.
    Вид битрейта : Постоянный
    Битрейт : 640 Кбит/сек
    Каналы : 6 каналов
    Расположение каналов : Front: L C R, Side: L R, LFE
    Частота : 48, 0 КГц
    Частота кадров : 31, 250 кадров/сек (1536 SPF)
    Битовая глубина : 16 бит
    Метод сжатия : С потерями
    Размер потока : 534 Мбайт (2%)
    Заголовок : RUS.DUB.AC3
    Язык : Russian
    ServiceKind/String : Complete Main
    Default : Да
    Forced : Нет
    Аудио #2
    Идентификатор : 3
    Формат : DTS
    Формат/Информация : Digital Theater Systems
    Идентификатор кодека : A_DTS
    Продолжительность : 1 ч. 56 м.
    Вид битрейта : Постоянный
    Битрейт : 1510 Кбит/сек
    Каналы : 6 каналов
    Расположение каналов : Front: L C R, Side: L R, LFE
    Частота : 48, 0 КГц
    Частота кадров : 93, 750 кадра/сек (512 SPF)
    Битовая глубина : 24 бит
    Метод сжатия : С потерями
    Размер потока : 1, 23 Гбайт (6%)
    Заголовок : ENG.DTS
    Язык : English
    Default : Нет
    Forced : Нет
    Аудио #3
    Идентификатор : 4
    Формат : AC-3
    Формат/Информация : Audio Coding 3
    Идентификатор кодека : A_AC3
    Продолжительность : 1 ч. 56 м.
    Вид битрейта : Постоянный
    Битрейт : 640 Кбит/сек
    Каналы : 6 каналов
    Расположение каналов : Front: L C R, Side: L R, LFE
    Частота : 48, 0 КГц
    Частота кадров : 31, 250 кадров/сек (1536 SPF)
    Битовая глубина : 16 бит
    Метод сжатия : С потерями
    Размер потока : 534 Мбайт (2%)
    Заголовок : UKR.AC3
    Язык : Ukrainian
    ServiceKind/String : Complete Main
    Default : Нет
    Forced : Нет
    Аудио #4
    Идентификатор : 5
    Формат : AC-3
    Формат/Информация : Audio Coding 3
    Идентификатор кодека : A_AC3
    Продолжительность : 1 ч. 56 м.
    Вид битрейта : Постоянный
    Битрейт : 640 Кбит/сек
    Каналы : 6 каналов
    Расположение каналов : Front: L C R, Side: L R, LFE
    Частота : 48, 0 КГц
    Частота кадров : 31, 250 кадров/сек (1536 SPF)
    Битовая глубина : 16 бит
    Метод сжатия : С потерями
    Размер потока : 534 Мбайт (2%)
    Заголовок : CHI.AC3
    Язык : Chinese
    ServiceKind/String : Complete Main
    Default : Нет
    Forced : Нет
    Текст #1
    Идентификатор : 6
    Формат : UTF-8
    Идентификатор кодека : S_TEXT/UTF8
    Идентификатор кодека/Информация : UTF-8 Plain Text
    Заголовок : Rus.Sub
    Язык : Russian
    Default : Нет
    Forced : Нет
    Текст #2
    Идентификатор : 7
    Формат : UTF-8
    Идентификатор кодека : S_TEXT/UTF8
    Идентификатор кодека/Информация : UTF-8 Plain Text
    Заголовок : Eng.Sub
    Язык : English
    Default : Нет
    Forced : Нет
    Меню
    00: 00: 00.000 : en: Chapter 00
    00: 09: 27.692 : en: Chapter 01
    00: 13: 38.108 : en: Chapter 02
    00: 16: 09.134 : en: Chapter 03
    00: 19: 42.764 : en: Chapter 04
    00: 24: 23.170 : en: Chapter 05
    00: 27: 16.843 : en: Chapter 06
    00: 28: 02.055 : en: Chapter 07
    00: 29: 31.436 : en: Chapter 08
    00: 33: 47.567 : en: Chapter 09
    00: 35: 43.558 : en: Chapter 10
    00: 41: 40.456 : en: Chapter 11
    00: 45: 45.868 : en: Chapter 12
    00: 48: 30.324 : en: Chapter 13
    00: 50: 28.775 : en: Chapter 14
    00: 54: 30.475 : en: Chapter 15
    00: 57: 37.495 : en: Chapter 16
    01: 01: 19.050 : en: Chapter 17
    01: 02: 48.389 : en: Chapter 18
    01: 05: 32.553 : en: Chapter 19
    01: 07: 32.882 : en: Chapter 20
    01: 09: 39.091 : en: Chapter 21
    01: 11: 17.022 : en: Chapter 22
    01: 14: 51.236 : en: Chapter 23
    01: 15: 47.584 : en: Chapter 24
    01: 20: 03.924 : en: Chapter 25
    01: 22: 11.468 : en: Chapter 26
    01: 24: 48.583 : en: Chapter 27
    01: 27: 21.527 : en: Chapter 28
    01: 32: 26.791 : en: Chapter 29
    01: 46: 07.402 : en: Chapter 30
    01: 48: 21.620 : en: Chapter 31
    Тачки-2/Cars-2 (2011) 1080 BDRemux
    Русское название: Тачки 2
    Оригинальное название: Cars 2
    Год выпуска: 2011
    Жанр: мультфильм, комедия, приключения, семейный
    Режиссер: Джон Лассетер, Брэд Льюис

    Описание фильма

    Молния МакКуин и его друг Мэтр отправляются в международное путешествие — когда МакКуин получает шанс участвовать в соревнованиях для самых быстрых машин в мире, Мировом Гран-При. Этапы этих престижных гонок заведут друзей в Токио, на набережные Парижа, на побережье Италии, и на улицы туманного Лондона.
    Продолжительность: 01: 47: 01
    Качество видео: BDRemux 1080
    Контейнер: MKV
    Перевод: дублированный
    Субтитры: русские, английские

    Дата мировой премьеры: 18 июня 2011
    Дата российской премьеры: 23 июня 2011, WDSSPR
    Релиз на DVD: 1 ноября 2011, Уолт Дисней Компани СНГ
    Релиз на Blu-Ray: 29 ноября 2011, Уолт Дисней Компани СНГ
    Выпущено: Walt Disney Pictures, Pixar Animation Studios (США)
    Видеокодек: MPEG-4 AVC/H.264
    Аудиокодек: AC-3, DTS-HD MA
    Видео: 1920x1080, 31, 0 Mbps(1080p, 23.976 fps, 16: 9, High @L4.1)
    Аудио1: AC-3, 640 Kbps, 48.0 KГц, 16 бит, 6 ch - Русский дублированный
    Аудио2: AC-3, 640 Kbps, 48.0 KГц, 16 бит, 6 ch - Украинский дублированный
    Аудио3: DTS-HD MA 7.1, 3499 Kbps, 48.0 KГц, 24 бит - English

    Скриншоты для ознакомления






    Общее
    Уникальный идентификатор : 239829066683038077196914418008432940261 (0xB46D65EA45305B9AB44103E0F58D94E5)
    Полное имя : H: torrentsCars(2006-2017)Cars-2.2011.1080p.BDRemux.mkv
    Формат : Matroska
    Версия формата : Version 2
    Размер файла : 22, 8 Гбайт
    Продолжительность : 1 ч. 47 м.
    Режим общего битрейта : Переменный
    Общий поток : 30, 5 Мбит/сек
    Название фильма : Тачки 2/Cars 2 (2011) 1080p BDRemux
    Дата кодирования : UTC 2011-11-03 19: 16: 15
    Программа кодирования : mkvmerge v5.0.0 (\'Die Wahre Liebe\') built on Sep 25 2011 20: 33: 49
    Библиотека кодирования : libebml v1.2.2 + libmatroska v1.3.0
    IsTruncated : Yes
    Видео
    Идентификатор : 1
    Формат : AVC
    Формат/Информация : Advanced Video Codec
    Профиль формата : High@L4.1
    Настройки формата : CABAC/4 Ref Frames
    Параметр CABAC формата : Да
    Параметр RefFrames формата : 4 кадра
    Идентификатор кодека : V_MPEG4/ISO/AVC
    Продолжительность : 1 ч. 47 м.
    Вид битрейта : Переменный
    Максимальный битрейт : 31, 0 Мбит/сек
    Ширина : 1920 пикселей
    Высота : 1080 пикселей
    Соотношение сторон : 16: 9
    Режим частоты кадров : Постоянный
    Частота кадров : 23, 976 (24000/1001) кадра/сек
    Цветовое пространство : YUV
    Субдискретизация насыщенности : 4: 2: 0
    Битовая глубина : 8 бит
    Тип развёртки : Прогрессивная
    Заголовок : Cars 2 (2011) 1080p BDRemux (by sergey2925 for nnm-club.me)
    Язык : English
    Default : Да
    Forced : Нет
    Аудио #1
    Идентификатор : 2
    Формат : AC-3
    Формат/Информация : Audio Coding 3
    Идентификатор кодека : A_AC3
    Продолжительность : 1 ч. 47 м.
    Вид битрейта : Постоянный
    Битрейт : 640 Кбит/сек
    Каналы : 6 каналов
    Расположение каналов : Front: L C R, Side: L R, LFE
    Частота : 48, 0 КГц
    Частота кадров : 31, 250 кадров/сек (1536 SPF)
    Битовая глубина : 16 бит
    Метод сжатия : С потерями
    Размер потока : 490 Мбайт (2%)
    Заголовок : RUS.DUB.AC3
    Язык : Russian
    ServiceKind/String : Complete Main
    Default : Да
    Forced : Нет
    Аудио #2
    Идентификатор : 3
    Формат : AC-3
    Формат/Информация : Audio Coding 3
    Идентификатор кодека : A_AC3
    Продолжительность : 1 ч. 47 м.
    Вид битрейта : Постоянный
    Битрейт : 640 Кбит/сек
    Каналы : 6 каналов
    Расположение каналов : Front: L C R, Side: L R, LFE
    Частота : 48, 0 КГц
    Частота кадров : 31, 250 кадров/сек (1536 SPF)
    Битовая глубина : 16 бит
    Метод сжатия : С потерями
    Размер потока : 490 Мбайт (2%)
    Заголовок : UKR.DUB.AC3
    Язык : Ukrainian
    ServiceKind/String : Complete Main
    Default : Нет
    Forced : Нет
    Аудио #3
    Идентификатор : 4
    Формат : DTS
    Формат/Информация : Digital Theater Systems
    Профиль формата : MA/Core
    Идентификатор кодека : A_DTS
    Продолжительность : 1 ч. 47 м.
    Вид битрейта : Переменный/Постоянный
    Битрейт : Неизвестно/1509 Кбит/сек
    Каналы : 8 каналов/6 каналов
    Расположение каналов : Front: L C R, Side: L R, Back: L R, LFE/Front: L C R, Side: L R, LFE
    Частота : 48, 0 КГц
    Частота кадров : 93, 750 кадра/сек (512 SPF)
    Битовая глубина : 24 бит
    Метод сжатия : Без потерь/Lossy
    Заголовок : ENG.ORIG.DTS
    Язык : English
    Default : Нет
    Forced : Нет
    Текст #1
    Идентификатор : 5
    Формат : UTF-8
    Идентификатор кодека : S_TEXT/UTF8
    Идентификатор кодека/Информация : UTF-8 Plain Text
    Заголовок : Rus.Sub
    Язык : Russian
    Default : Нет
    Forced : Нет
    Текст #2
    Идентификатор : 6
    Формат : UTF-8
    Идентификатор кодека : S_TEXT/UTF8
    Идентификатор кодека/Информация : UTF-8 Plain Text
    Заголовок : Eng.Sub
    Язык : English
    Default : Нет
    Forced : Нет
    Меню
    00: 00: 00.000 : en: Chapter 00
    00: 01: 29.172 : en: Chapter 01
    00: 04: 47.578 : en: Chapter 02
    00: 07: 43.671 : en: Chapter 03
    00: 12: 07.893 : en: Chapter 04
    00: 17: 48.942 : en: Chapter 05
    00: 20: 01.325 : en: Chapter 06
    00: 22: 51.536 : en: Chapter 07
    00: 26: 34.634 : en: Chapter 08
    00: 30: 30.161 : en: Chapter 09
    00: 32: 41.960 : en: Chapter 10
    00: 34: 13.509 : en: Chapter 11
    00: 37: 15.566 : en: Chapter 12
    00: 40: 44.150 : en: Chapter 13
    00: 42: 53.153 : en: Chapter 14
    00: 46: 18.567 : en: Chapter 15
    00: 46: 57.940 : en: Chapter 16
    00: 49: 48.527 : en: Chapter 17
    00: 53: 56.399 : en: Chapter 18
    00: 54: 57.252 : en: Chapter 19
    00: 57: 36.202 : en: Chapter 20
    00: 59: 27.730 : en: Chapter 21
    01: 02: 16.941 : en: Chapter 22
    01: 05: 56.285 : en: Chapter 23
    01: 12: 31.764 : en: Chapter 24
    01: 14: 05.899 : en: Chapter 25
    01: 15: 24.186 : en: Chapter 26
    01: 21: 12.993 : en: Chapter 27
    01: 23: 22.247 : en: Chapter 28
    01: 29: 06.924 : en: Chapter 29
    01: 31: 48.127 : en: Chapter 30
    01: 32: 41.222 : en: Chapter 31
    01: 38: 18.601 : en: Chapter 32
    Тачки-3/Cars-3 (2017) 1080 BDRemux
    Русское название: Тачки 3
    Оригинальное название: Cars 3
    Год выпуска: 2017
    Жанр: мультфильм, комедия, приключения, семейный
    Режиссер: Джон Лассетер, Джо Рэнфт

    Описание фильма

    Встречайте самого знаменитого гонщика всех времен, легенду гоночного трека Молнию Маккуина!
    Герой все еще продолжает показывать лучшие результаты на всех турнирах, однако победы даются ему не так легко, а конкуренция становится все жестче. Молнию Маккуина ждут захватывающие приключения, где он встретит новых друзей, а также поймет, что не только скорость и мощность мотора делают гонщика чемпионом.
    Продолжительность: 01: 42: 25
    Качество видео: BDRemux 1080
    Контейнер: MKV
    Перевод: дублированный
    Субтитры: русские, английские, украинские

    Дата мировой премьеры: 10 июня 2017
    Дата российской премьеры: 15 июня 2017, WDSSPR
    Выпущено: Walt Disney Pictures, Pixar Animation Studios (США)
    Видео: AVC/H.264, 1920x1080 (16: 9), 21637 kbps, 23.976 fps
    Аудио #1: AC-3, 5.1, 48 kHz, 640 kbps | Русский
    Аудио #2: DTS-HD MA, 5.1, 48 kHz, 3768 kbps, 24-bit | Украинский
    Аудио #3: DTS-HD MA, 7.1, 48 kHz, 4415 kbps, 24-bit | Английский

    Скриншоты для ознакомления






    Общее
    Уникальный идентификатор : 197672699805206657652793469203987133768 (0x94B6608E7E3998F0AEFD6951FD2D7548)
    Полное имя : H: torrentsCars(2006-2017)Cars-3.2017.1080p.BDRemux.mkv
    Формат : Matroska
    Версия формата : Version 4/Version 2
    Размер файла : 21, 8 Гбайт
    Продолжительность : 1 ч. 42 м.
    Режим общего битрейта : Переменный
    Общий поток : 30, 5 Мбит/сек
    Название фильма : MR Sergei for NoNaMe Club
    Дата кодирования : UTC 2017-11-18 06: 48: 51
    Программа кодирования : mkvmerge v17.0.0 (\'Be Ur Friend\') 64-bit
    Библиотека кодирования : libebml v1.3.5 + libmatroska v1.4.8
    Attachments : Cars-3.jpg
    Видео
    Идентификатор : 1
    Формат : AVC
    Формат/Информация : Advanced Video Codec
    Профиль формата : High@L4.1
    Настройки формата : CABAC/4 Ref Frames
    Параметр CABAC формата : Да
    Параметр RefFrames формата : 4 кадра
    Параметр GOP формата : M=1, N=12
    Идентификатор кодека : V_MPEG4/ISO/AVC
    Продолжительность : 1 ч. 42 м.
    Вид битрейта : Переменный
    Битрейт : 21, 6 Мбит/сек
    Максимальный битрейт : 32, 0 Мбит/сек
    Ширина : 1920 пикселей
    Высота : 1080 пикселей
    Соотношение сторон : 16: 9
    Режим частоты кадров : Постоянный
    Частота кадров : 23, 976 (24000/1001) кадра/сек
    Цветовое пространство : YUV
    Субдискретизация насыщенности : 4: 2: 0
    Битовая глубина : 8 бит
    Тип развёртки : Прогрессивная
    Бит/(Пиксели*Кадры) : 0.435
    Размер потока : 15, 5 Гбайт (71%)
    Язык : English
    Default : Да
    Forced : Нет
    Аудио #1
    Идентификатор : 2
    Формат : AC-3
    Формат/Информация : Audio Coding 3
    Идентификатор кодека : A_AC3
    Продолжительность : 1 ч. 42 м.
    Вид битрейта : Постоянный
    Битрейт : 640 Кбит/сек
    Каналы : 6 каналов
    Расположение каналов : Front: L C R, Side: L R, LFE
    Частота : 48, 0 КГц
    Частота кадров : 31, 250 кадров/сек (1536 SPF)
    Битовая глубина : 16 бит
    Метод сжатия : С потерями
    Размер потока : 469 Мбайт (2%)
    Заголовок : Dub | AC3 5.1 @ 640 kbps
    Язык : Russian
    ServiceKind/String : Complete Main
    Default : Да
    Forced : Нет
    Аудио #2
    Идентификатор : 3
    Формат : DTS
    Формат/Информация : Digital Theater Systems
    Профиль формата : MA/Core
    Идентификатор кодека : A_DTS
    Продолжительность : 1 ч. 42 м.
    Вид битрейта : Переменный/Постоянный
    Битрейт : 3840 Кбит/сек/1509 Кбит/сек
    Каналы : 6 каналов
    Расположение каналов : Front: L C R, Side: L R, LFE
    Частота : 48, 0 КГц
    Частота кадров : 93, 750 кадра/сек (512 SPF)
    Битовая глубина : 24 бит
    Метод сжатия : Без потерь/Lossy
    Задержка видео : 35 мс.
    Размер потока : 2, 70 Гбайт (12%)
    Заголовок : Dub | DTS-HD MA 5.1 @ 3768 kbps
    Язык : Ukrainian
    Default : Нет
    Forced : Нет
    Аудио #3
    Идентификатор : 4
    Формат : DTS
    Формат/Информация : Digital Theater Systems
    Профиль формата : MA/Core
    Идентификатор кодека : A_DTS
    Продолжительность : 1 ч. 42 м.
    Вид битрейта : Переменный/Постоянный
    Битрейт : 4415 Кбит/сек/1509 Кбит/сек
    Каналы : 8 каналов/6 каналов
    Расположение каналов : Front: L C R, Side: L R, Back: L R, LFE/Front: L C R, Side: L R, LFE
    Частота : 48, 0 КГц
    Частота кадров : 93, 750 кадра/сек (512 SPF)
    Битовая глубина : 24 бит
    Метод сжатия : Без потерь/Lossy
    Размер потока : 3, 16 Гбайт (14%)
    Заголовок : Original | DTS-HD MA 7.1 @ 4415 kbps
    Язык : English
    Default : Нет
    Forced : Нет
    Текст #1
    Идентификатор : 5
    Формат : UTF-8
    Идентификатор кодека : S_TEXT/UTF8
    Идентификатор кодека/Информация : UTF-8 Plain Text
    Продолжительность : 1 ч. 39 м.
    Битрейт : 0 бит/сек
    ElementCount : 9
    Размер потока : 331 байт (0%)
    Заголовок : Forced
    Язык : Russian
    Default : Да
    Forced : Нет
    Текст #2
    Идентификатор : 6
    Формат : UTF-8
    Идентификатор кодека : S_TEXT/UTF8
    Идентификатор кодека/Информация : UTF-8 Plain Text
    Продолжительность : 1 ч. 40 м.
    Битрейт : 111 бит/сек
    ElementCount : 1423
    Размер потока : 82, 6 Кбайт (0%)
    Заголовок : Full
    Язык : Russian
    Default : Нет
    Forced : Нет
    Текст #3
    Идентификатор : 7
    Формат : UTF-8
    Идентификатор кодека : S_TEXT/UTF8
    Идентификатор кодека/Информация : UTF-8 Plain Text
    Продолжительность : 1 ч. 41 м.
    Битрейт : 161 бит/сек
    ElementCount : 1967
    Размер потока : 120 Кбайт (0%)
    Заголовок : Commentary
    Язык : Russian
    Default : Нет
    Forced : Нет
    Текст #4
    Идентификатор : 8
    Формат : UTF-8
    Идентификатор кодека : S_TEXT/UTF8
    Идентификатор кодека/Информация : UTF-8 Plain Text
    Продолжительность : 1 ч. 30 м.
    Битрейт : 0 бит/сек
    ElementCount : 13
    Размер потока : 656 байт (0%)
    Заголовок : Forced
    Язык : Ukrainian
    Default : Нет
    Forced : Нет
    Текст #5
    Идентификатор : 9
    Формат : UTF-8
    Идентификатор кодека : S_TEXT/UTF8
    Идентификатор кодека/Информация : UTF-8 Plain Text
    Продолжительность : 1 ч. 40 м.
    Битрейт : 79 бит/сек
    ElementCount : 1425
    Размер потока : 59, 0 Кбайт (0%)
    Заголовок : Full
    Язык : English
    Default : Нет
    Forced : Нет
    Текст #6
    Идентификатор : 10
    Формат : UTF-8
    Идентификатор кодека : S_TEXT/UTF8
    Идентификатор кодека/Информация : UTF-8 Plain Text
    Продолжительность : 1 ч. 40 м.
    Битрейт : 87 бит/сек
    ElementCount : 2107
    Размер потока : 64, 4 Кбайт (0%)
    Заголовок : SDH
    Язык : English
    Default : Нет
    Forced : Нет
    Текст #7
    Идентификатор : 11
    Формат : UTF-8
    Идентификатор кодека : S_TEXT/UTF8
    Идентификатор кодека/Информация : UTF-8 Plain Text
    Продолжительность : 1 ч. 40 м.
    Битрейт : 115 бит/сек
    ElementCount : 2107
    Размер потока : 85, 4 Кбайт (0%)
    Заголовок : SDH-Colored
    Язык : English
    Default : Нет
    Forced : Нет
    Текст #8
    Идентификатор : 12
    Формат : UTF-8
    Идентификатор кодека : S_TEXT/UTF8
    Идентификатор кодека/Информация : UTF-8 Plain Text
    Продолжительность : 1 ч. 41 м.
    Битрейт : 120 бит/сек
    ElementCount : 1967
    Размер потока : 89, 8 Кбайт (0%)
    Заголовок : Commentary
    Язык : English
    Default : Нет
    Forced : Нет
    Текст #9
    Идентификатор : 13
    Формат : UTF-8
    Идентификатор кодека : S_TEXT/UTF8
    Идентификатор кодека/Информация : UTF-8 Plain Text
    Продолжительность : 1 ч. 41 м.
    Битрейт : 124 бит/сек
    ElementCount : 2002
    Размер потока : 92, 8 Кбайт (0%)
    Заголовок : Commentary
    Язык : English
    Default : Нет
    Forced : Нет
    Меню
    00: 00: 00.000 : : Champ McQueen
    00: 04: 57.255 : : Storm Front
    00: 10: 54.988 : : Crash
    00: 13: 59.422 : : Wake-up Call
    00: 18: 15.344 : : Phone Call
    00: 21: 07.641 : : Modern Training
    00: 34: 08.880 : : Deal
    00: 37: 52.103 : : Beach
    00: 42: 44.812 : : Crazy Eight
    00: 49: 44.398 : : Cruz\'s Dream
    00: 53: 57.734 : : Facetime
    00: 58: 17.702 : : Olive Branch
    00: 59: 27.522 : : Smokey
    01: 02: 15.940 : : Hud\'s Win
    01: 06: 35.533 : : It\'s Over
    01: 08: 33.109 : : Old School Training
    01: 15: 48.126 : : Florida Arrival
    01: 20: 57.852 : : Pit Stop
    01: 29: 42.418 : : Victory Lane
    01: 32: 17.031 : : Epilogue
    01: 34: 00.092 : : End Credits
    Мультачки: Байки Мэтра/CarsToon: Mater\'s Tall Tales (2008-2010) 1080 BDRemux
    Русское название: Мультачки: Байки Мэтра
    Оригинальное название: CarsToon: Mater\'s Tall Tales
    Год выпуска: 2008-2010
    Жанр: мультфильм, комедия, приключения, семейный
    Режиссер: Роб Гиббс, Джон Лассетер, Victor Navone

    Описание фильма

    Главный герой этих историй, друг гонщика Молнии МакКвин — грузовичок Мэтр из городка Радиатор-Спрингс. В своих рассказах он предстаёт перед зрителем в неповторимых образах лихого спасателя, дипломированного доктора, расскажет о том как он был звездой каскадерского авто-шоу, и победителем среди стритрейсеров на автогонках в Токио. Мэтр выдумывает нереальные истории, в которые то и дело втягивает своего товарища МакКвина. При этом Молнии далеко не всегда в историях Метра достаются удачные роли…
    Продолжительность: 00: 35: 37
    Качество видео: BDRemux
    Контейнер: MKV
    Перевод: дублированный
    Субтитры: русские
    Выпущено: Pixar Animation Studios (США)

    Видеокодек: MPEG-4 AVC/H.264
    Аудиокодек: AC-3, DTS-HD MA
    Видео: 1920x1080, 34, 0 Mbps(1080p, 23.976 fps, 16: 9, High @L4.1)
    Аудио1: AC-3, 640 Kbps, 48.0 KГц, 16 бит, 6 ch - Русский дублированный
    Аудио2: DTS-HD MA, 2710 Kbps, 48.0 KГц, 24 бит - English

    Скриншоты для ознакомления






    Общее
    Уникальный идентификатор : 172467750005926834798534758926643409607 (0x81C0149641F90069A422360E8C04B2C7)
    Полное имя : H: torrentsCars(2006-2017)CarsToon-Mater\'s Tall Tales.1080p.BDRemux.mkv
    Формат : Matroska
    Версия формата : Version 2
    Размер файла : 7, 40 Гбайт
    Продолжительность : 35 м. 37 с.
    Режим общего битрейта : Переменный
    Общий поток : 29, 7 Мбит/сек
    Название фильма : CarsToon: Mater\'s Tall Tales (2006-2010)
    Дата кодирования : UTC 2011-10-20 07: 00: 34
    Программа кодирования : mkvmerge v5.0.0 (\'Die Wahre Liebe\') built on Sep 25 2011 20: 33: 49
    Библиотека кодирования : libebml v1.2.2 + libmatroska v1.3.0
    Видео
    Идентификатор : 1
    Формат : AVC
    Формат/Информация : Advanced Video Codec
    Профиль формата : High@L4.1
    Настройки формата : CABAC/4 Ref Frames
    Параметр CABAC формата : Да
    Параметр RefFrames формата : 4 кадра
    Идентификатор кодека : V_MPEG4/ISO/AVC
    Продолжительность : 35 м. 37 с.
    Вид битрейта : Переменный
    Максимальный битрейт : 34, 0 Мбит/сек
    Ширина : 1920 пикселей
    Высота : 1080 пикселей
    Соотношение сторон : 16: 9
    Режим частоты кадров : Постоянный
    Частота кадров : 23, 976 (24000/1001) кадра/сек
    Цветовое пространство : YUV
    Субдискретизация насыщенности : 4: 2: 0
    Битовая глубина : 8 бит
    Тип развёртки : Прогрессивная
    Заголовок : CarsToon: Mater\'s Tall Tales 1080p BDRemux (by sergey2925 for nnm-club.me)
    Язык : English
    Default : Да
    Forced : Нет
    Цветовой диапазон : Limited
    Основные цвета : BT.709
    Характеристики трансфера : BT.709
    Коэффициенты матрицы : BT.709
    Аудио #1
    Идентификатор : 2
    Формат : AC-3
    Формат/Информация : Audio Coding 3
    Идентификатор кодека : A_AC3
    Продолжительность : 35 м. 37 с.
    Вид битрейта : Постоянный
    Битрейт : 640 Кбит/сек
    Каналы : 6 каналов
    Расположение каналов : Front: L C R, Side: L R, LFE
    Частота : 48, 0 КГц
    Частота кадров : 31, 250 кадров/сек (1536 SPF)
    Битовая глубина : 16 бит
    Метод сжатия : С потерями
    Размер потока : 163 Мбайт (2%)
    Заголовок : RUS.DUB.AC3
    Язык : Russian
    ServiceKind/String : Complete Main
    Default : Да
    Forced : Нет
    Аудио #2
    Идентификатор : 3
    Формат : DTS
    Формат/Информация : Digital Theater Systems
    Профиль формата : MA/ES Matrix/Core
    Идентификатор кодека : A_DTS
    Продолжительность : 35 м. 37 с.
    Вид битрейта : Переменный/Постоянный/Постоянный
    Битрейт : Неизвестно/1509 Кбит/сек/1509 Кбит/сек
    Каналы : 7 каналов/7 каналов/6 каналов
    Расположение каналов : Front: L C R, Side: L R, Back: C, LFE/Front: L C R, Side: L R, Back: C, LFE/Front: L C R, Side: L R, LFE
    Частота : 48, 0 КГц
    Частота кадров : 93, 750 кадра/сек (512 SPF)
    Битовая глубина : 24 бит
    Метод сжатия : Без потерь/Lossy/Lossy
    Заголовок : ENG.DTS-HD MA
    Язык : English
    Default : Нет
    Forced : Нет
    Текст
    Идентификатор : 4
    Формат : UTF-8
    Идентификатор кодека : S_TEXT/UTF8
    Идентификатор кодека/Информация : UTF-8 Plain Text
    Заголовок : Rus.Sub
    Язык : Russian
    Default : Нет
    Forced : Нет
    Меню
    00: 00: 08.008 : en: 1 - Мэтр-каскадёр/Mater the Greater
    00: 03: 37.800 : en: 2 - Мэтр, команда спасения/Rescue Squad Mater
    00: 06: 08.326 : en: 3 - Мэтр, великий рестлер/Monster Truck Mater
    00: 10: 03.811 : en: 4 - Неопознаный летающий Мэтр/Unidentified Flying Mater
    00: 13: 59.964 : en: 5 - Эль Мэтрдор/El Materdor
    00: 17: 16.201 : en: 6 - Мэтр на луне/Moon Mater
    00: 21: 02.302 : en: 7 - Мэтр-металлист/Heavy Metal Mater
    00: 24: 12.951 : en: 8 - Детектив Мэтр/Mater Private Eye
    00: 28: 28.414 : en: 9 - Токио Мэтр/Tokyo Mater

    Скриншоты для ознакомления



    Все одноименные релизы в Клубе
    Время раздачи: Пн-Пт., с 9: 00 до 20: 00


    Онлайн видео Тачки: Трилогия



    Тачки: Трилогия/Cars: Trilogy (2006-2017) BDRemux [H.264/1080p]
    Рейтинг →
     (голосов: 1, оценка 3/5, голосовать можно 1 раз )

    Другие торренты по теме:

  • Cars 2 / Тачки 2 [PS3] [EUR] [Ru] [3.55] [Cobra ODE / E3 ODE PRO ISO] (2011)
  • Тачки: Быстрые как Молния v1.0.0h (08.09.2014) <Ru> скачать через торрент бесплатно
  • Тачки 2 / Cars 2 (2011) BDRip [1080p] ATV
  • Тачки 2 / Cars 2 (2011) BDRip [720p] ATV
  • Тачки / Cars (2006) BDRip [720p]
  • Тачки / Cars (2006) BDRip [1080p] ATV2 скачать через торрент бесплатно
  • Cars 2 / Тачки 2 (2011) [Wii] [PAL] [Ru] скачать через торрент бесплатно
  • Cars 2: The Video Game / Тачки 2 (2011) [Xbox360] [RegionFree] [FreeBoot] [License] [Ru] скачать через торрент бесплатно


    • Комментарии (0):

      Информация

      Информация

        Посетители, находящиеся в группе Гости, не могут оставлять комментарии в данной новости.

        ↓ Меню




        ↓ Опрос

        Вы добавили сайт в закладки?
        Да
        Нет


        Top 10 за месяц (Мультфильмы)