.
Авторизация | Регистрация
Хочешь лучшие торренты? Добавь свой email!
Добавить

Торрент скачать бесплатно

  • support: webmaster@btracker.org
» » Эй, хорошо выглядишь (Эй, красавчик) / Hey Good Lookin (1982) WEBRip [H.264-LQ] [AVO] торрент скачать бесплатно


    Эй, хорошо выглядишь (Эй, красавчик) / Hey Good Lookin (1982) WEBRip [H.264-LQ] [AVO] торрент скачать бесплатно

    Опубликовал: Админ | Дата: 3-04-2018, 05:00 | .torrent скачали: 0

    Эй, хорошо выглядишь (Эй, красавчик) / Hey Good Lookin (1982) WEBRip [H.264-LQ] [AVO]Производство: США, Bakshi Productions
    Жанр: Рисованная анимация, Для взрослых
    Режиссер: Ральф Бакши
    Персонажи: Ричард Романус, Дэвид Провэл, Джесси Уэллс, Тина Романус, Дэнни Уэллс, Ларри Бишоп, Таби Купер, Джуно Доусон, Ширли Джо Финни, Мартин Гарнер

    Описание

    Однажды ночью на пустынной улице встретились мужчина и женщина. Так могла начаться история романтических взаимоотношений, но не на сей раз. Мужчина не дарил женщине розу и не говорил комплиментов. Он показал незнакомке рваную кожаную куртку и начал рассказ о собственной молодости. Он рассказал о том, что в 50-ые годы жил в трущобах Бруклина и состоял в подростковой банде. Они называли себя Высокие Ботинки и очень следили за собственной внешностью. А особенно ухоженным среди них был предводитель банды, Винни. Высокие Ботинки могли бы считаться королями Бруклина, если бы не враждебная им банда, группировка чернокожих под названием Чаплины. Непримиримое соперничество между бандами частенько омрачало жизнь пижонов из Высоких Ботинок. И об этом тоже рассказал мужчина одинокой женщине, встреченной им на темной улице ночного города.

    Рейтинг MPAA: R (лицам до 17 лет обязательно присутствие взрослого)
    Дата мировой премьеры: 1 октября 1982
    Релиз от: BadBajo
    Продолжительность: 01: 17: 14
    Качество видео: WEBRip
    Перевод: Авторский (одноголосый, закадровый) - А.Важенин (BadBajo)
    Озвучка/Автор перевода: BadBajo
    Помощь в подготовке субтитров: Bucof
    Работа со звуком: Rammzez
    Субтитры: Отсутствуют
    Видео: AVC/H.264, 848х480, ~1467 Kbps
    Аудио: AC3, 2 ch, 192 Kbps l Русский (BadBajo)
    Аудио: AC3, 2 ch, 192 Kbps l Английский

    General
    Unique ID : 87484600082459302225855283860759886372 (0x41D0EBCD05ED574F1D2D7366895BBA24)
    Complete name : Hey Good Lookin 1982_rus_BadBajo.mkv
    Format : Matroska
    Format version : Version 4/Version 2
    File size : 1 024 MiB
    Duration : 1 h 17 min
    Overall bit rate : 1 853 kb/s
    Movie name : Hey Good Lookin 1982_rus_BadBajo
    Encoded date : UTC 2018-04-02 09: 56: 02
    Writing application : mkvmerge v20.0.0 (\'I Am The Sun\') 64-bit
    Writing library : libebml v1.3.5 + libmatroska v1.4.8
    Cover : Yes
    Attachments : cover.jpg
    Video
    ID : 1
    Format : AVC
    Format/Info : Advanced Video Codec
    Format profile : High@L3
    Format settings : CABAC/5 Ref Frames
    Format settings, CABAC : Yes
    Format settings, ReFrames : 5 frames
    Codec ID : V_MPEG4/ISO/AVC
    Duration : 1 h 17 min
    Bit rate : 1 467 kb/s
    Width : 848 pixels
    Height : 480 pixels
    Display aspect ratio : 16: 9
    Frame rate mode : Constant
    Frame rate : 23.976 (24000/1001) FPS
    Color space : YUV
    Chroma subsampling : 4: 2: 0
    Bit depth : 8 bits
    Scan type : Progressive
    Bits/(Pixel*Frame) : 0.150
    Stream size : 810 MiB (79%)
    Writing library : x264 core 120 r2164 da19765
    Encoding settings : cabac=1/ref=5/deblock=1: 1: 1/analyse=0x3: 0x133/me=umh/subme=7/psy=1/psy_rd=0.40: 0.00/mixed_ref=1/me_range=16/chroma_me=1/trellis=2/8x8dct=1/cqm=0/deadzone=21, 11/fast_pskip=0/chroma_qp_offset=-2/threads=6/sliced_threads=0/nr=0/decimate=0/interlaced=0/bluray_compat=0/constrained_intra=0/bframes=3/b_pyramid=2/b_adapt=2/b_bias=0/direct=3/weightb=1/open_gop=0/weightp=2/keyint=240/keyint_min=23/scenecut=40/intra_refresh=0/rc_lookahead=50/rc=2pass/mbtree=1/bitrate=1467/ratetol=1.0/qcomp=0.60/qpmin=10/qpmax=51/qpstep=4/cplxblur=20.0/qblur=0.5/ip_ratio=1.40/aq=1: 1.00
    Language : English
    Default : Yes
    Forced : No
    Audio #1
    ID : 2
    Format : AC-3
    Format/Info : Audio Coding 3
    Codec ID : A_AC3
    Duration : 1 h 17 min
    Bit rate mode : Constant
    Bit rate : 192 kb/s
    Channel(s) : 2 channels
    Channel positions : Front: L R
    Sampling rate : 48.0 kHz
    Frame rate : 31.250 FPS (1536 SPF)
    Bit depth : 16 bits
    Compression mode : Lossy
    Stream size : 106 MiB (10%)
    Title : Hey Good Lookin 1982_rus_BadBajo
    Language : Russian
    Service kind : Complete Main
    Default : Yes
    Forced : Yes
    Audio #2
    ID : 3
    Format : AC-3
    Format/Info : Audio Coding 3
    Codec ID : A_AC3
    Duration : 1 h 17 min
    Bit rate mode : Constant
    Bit rate : 192 kb/s
    Channel(s) : 2 channels
    Channel positions : Front: L R
    Sampling rate : 48.0 kHz
    Frame rate : 31.250 FPS (1536 SPF)
    Bit depth : 16 bits
    Compression mode : Lossy
    Stream size : 106 MiB (10%)
    Title : Hey Good Lookin 1982_eng
    Language : English
    Service kind : Complete Main
    Default : No
    Forced : No


    Онлайн видео Эй, хорошо выглядишь (Эй, красавчик)



    Эй, хорошо выглядишь (Эй, красавчик)/Hey Good Lookin (1982) WEBRip [H.264-LQ] [AVO]
    Рейтинг →
     (голосов: 1, оценка 4/5, голосовать можно 1 раз )

    Другие торренты по теме:

  • Тайны советского кино. "Все будет хорошо" (2014) SATRip
  • Самые шокирующие гипотезы. Кому в Европе жить хорошо (23.07.2015) SATRip скачать через торрент бесплатно
  • На лоне природы / Хорошо на природе / The Great Outdoors (1988) DVDRip скачать через торрент бесплатно
  • Все будет хорошо / Every Thing Will Be Fine (2015) BDRip [H.264 / 720p] [EN] скачать через торрент бесплатно
  • Все будет хорошо / Every Thing Will Be Fine (2015) BDRip [H.264 / 1080p] [EN] скачать через торрент бесплатно
  • МакSим - Хорошо (2015) [MP3|320 кб / с]<Pop> скачать через торрент бесплатно
  • МакSим - Хорошо (2015) [FLAC|Lossless|image + .cue] <Pop> скачать через торрент бесплатно
  • Все будет хорошо / Every Thing Will Be Fine (2015) HDRip


    • Комментарии (0):

      Информация

      Информация

        Посетители, находящиеся в группе Гости, не могут оставлять комментарии в данной новости.

        ↓ Меню




        ↓ Опрос

        Вы добавили сайт в закладки?
        Да
        Нет


        Top 10 за месяц (Мультфильмы)