.
Авторизация | Регистрация
Хочешь лучшие торренты? Добавь свой email!
Добавить

Торрент скачать бесплатно

» » Звёздный десант: Предатель Марса / Starship Troopers: Traitor of Mars (2017) UHD BDRemux [H.265 / 2160p] [4K, HDR, 10-bit] торрент скачать бесплатно


    Звёздный десант: Предатель Марса / Starship Troopers: Traitor of Mars (2017) UHD BDRemux [H.265 / 2160p] [4K, HDR, 10-bit] торрент скачать бесплатно

    Опубликовал: Админ | Дата: 2-04-2018, 05:00 | .torrent скачали: 0

    Звёздный десант: Предатель Марса / Starship Troopers: Traitor of Mars (2017) UHD BDRemux [H.265 / 2160p] [4K, HDR, 10-bit]Производство: Япония, США/Lucent Pictures Entertainment
    Жанр: мультфильм, фантастика, боевик
    Режиссер: Синдзи Арамаки, Масару Мацумото
    Продюсер: Джозеф Чоу, Томи Хасимото, Макс Ниси

    Актеры
    Каспер Ван Дин, Дина Мейер, ДеРэй Дэвис, Люси Кристиан, Джастин Доран

    Описание

    На колонизированном людьми Марсе жизнь течёт мирно и спокойно. В остальной Федерации марсиан считают недалёкими, и десантник Джон Рико уже тоже начинает сомневаться в способностях своего отряда — раз за разом команда проваливает на симуляторе миссии по уничтожению колонии жуков. И когда внезапно Марс атакуют полчища уже настоящих гигантских насекомых, отряду новичков придется доказать, что марсиане способны постоять за родную планету.

    Возраст: 16+ (зрителям, достигшим 16 лет)
    Рейтинг MPAA: R (лицам до 17 лет обязательно присутствие взрослого)
    Дата мировой премьеры: 21 августа 2017

    Релиз от: ExKinoRay Ivantsov
    Продолжительность: 01: 27: 44
    Качество: UHD BDRemux (HDR)
    Перевод: Профессиональный многоголосый (Лицензия EUR)
    Субтитры: Русские, английские
    Видео: H.265/HEVC, 3840x2160, (16: 9), 62.4 Mbps, 23.976 fps
    Аудио: AC3, 6 ch, 640 kbps - Русский
    Аудио: TrueHD-Atmos, 8 ch, 5128 kbps - Английский
    Аудио: AC3, 6 ch, 640 kbps - Английский, AC3 CORE
    Диск на Blu-ray.com
    Просмотр 4K HDR-контента на ПК
    Общее
    Уникальный идентификатор : 227532615180534455009465975578227501256 (0xAB2D300C753AD069AD922D8A1525E8C8)
    Полное имя : Starship.Troopers.Traitor.of.Mars.2017.2160p.BDRemux.HEVC.HDR.IVA(RUS.ENG).ExKinoRay.mkv
    Формат : Matroska
    Версия формата : Version 4/Version 2
    Размер файла : 42, 2 Гбайт
    Продолжительность : 1 ч. 27 м.
    Режим общего битрейта : Переменный
    Общий поток : 68, 9 Мбит/сек
    Название фильма : Звёздный десант: Предатель Марса/Starship Troopers: Traitor of Mars ( 2017 ) | 2160p.BDRemux.HEVC.HDR | IVA(RUS.ENG) | ExKinoRay
    Дата кодирования : UTC 2018-03-30 12: 42: 17
    Программа кодирования : mkvmerge v21.0.0 (\'Tardigrades Will Inherit The Earth\') 64-bit
    Библиотека кодирования : libebml v1.3.5 + libmatroska v1.4.8
    Обложка : Yes
    Видео
    Идентификатор : 1
    Формат : HEVC
    Формат/Информация : High Efficiency Video Coding
    Коммерческое название : HDR10
    Профиль формата : Main10@L5.1@High
    Идентификатор кодека : V_MPEGH/ISO/HEVC
    Продолжительность : 1 ч. 27 м.
    Битрейт : 62, 4 Мбит/сек
    Ширина : 3840 пикселей
    Высота : 2160 пикселей
    Соотношение сторон : 16: 9
    Режим частоты кадров : Постоянный
    Частота кадров : 23, 976 (24000/1001) кадра/сек
    Цветовое пространство : YUV
    Субдискретизация насыщенности : 4: 2: 0 (Type 2)
    Битовая глубина : 10 бит
    Бит/(Пиксели*Кадры) : 0.314
    Размер потока : 38, 3 Гбайт (91%)
    Заголовок : Starship.Troopers.Traitor.of.Mars.2017.2160p.BDRemux.HEVC.HDR
    Язык : English
    Default : Да
    Forced : Нет
    Цветовой диапазон : Limited
    Основные цвета : BT.2020
    Характеристики трансфера : PQ
    Коэффициенты матрицы : BT.2020 non-constant
    MasteringDisplay_Luminance : min: 0.0050 cd/m2, max: 4000 cd/m2
    MaxCLL : 9978 cd/m2
    MaxFALL : 533 cd/m2
    Аудио #1
    Идентификатор : 2
    Формат : AC-3
    Формат/Информация : Audio Coding 3
    Идентификатор кодека : A_AC3
    Продолжительность : 1 ч. 27 м.
    Вид битрейта : Постоянный
    Битрейт : 640 Кбит/сек
    Каналы : 6 каналов
    Расположение каналов : Front: L C R, Side: L R, LFE
    Частота : 48, 0 КГц
    Частота кадров : 31, 250 кадров/сек (1536 SPF)
    Битовая глубина : 16 бит
    Метод сжатия : С потерями
    Размер потока : 402 Мбайт (1%)
    Заголовок : | MVO, BD 4K |
    Язык : Russian
    ServiceKind/String : Complete Main
    Default : Да
    Forced : Нет
    Аудио #2
    Идентификатор : 3
    Формат : TrueHD
    Профиль формата : TrueHD+Atmos/TrueHD
    Идентификатор кодека : A_TRUEHD
    Продолжительность : 1 ч. 27 м.
    Вид битрейта : Переменный
    Битрейт : 5128 Кбит/сек
    Максимальный битрейт : 8667 Кбит/сек
    Каналы : Object Based/8 каналов
    Расположение каналов : Object Based/Front: L C R, Side: L R, Back: L R, LFE
    Частота : /48, 0 КГц
    Частота кадров : 1200, 000 кадров/сек (40 SPF)
    Метод сжатия : Без потерь
    Размер потока : 3, 14 Гбайт (7%)
    Заголовок : | Original |
    Язык : English
    Default : Нет
    Forced : Нет
    Аудио #3
    Идентификатор : 4
    Формат : AC-3
    Формат/Информация : Audio Coding 3
    Идентификатор кодека : A_AC3
    Продолжительность : 1 ч. 27 м.
    Вид битрейта : Постоянный
    Битрейт : 640 Кбит/сек
    Каналы : 6 каналов
    Расположение каналов : Front: L C R, Side: L R, LFE
    Частота : 48, 0 КГц
    Частота кадров : 31, 250 кадров/сек (1536 SPF)
    Битовая глубина : 16 бит
    Метод сжатия : С потерями
    Размер потока : 402 Мбайт (1%)
    Заголовок : | Original, AC3 CORE |
    Язык : English
    ServiceKind/String : Complete Main
    Default : Нет
    Forced : Нет
    Текст #1
    Идентификатор : 5
    Формат : UTF-8
    Идентификатор кодека : S_TEXT/UTF8
    Идентификатор кодека/Информация : UTF-8 Plain Text
    Продолжительность : 1 ч. 27 м.
    Битрейт : 86 бит/сек
    ElementCount : 1158
    Размер потока : 55, 3 Кбайт (0%)
    Заголовок : Full
    Язык : Russian
    Default : Нет
    Forced : Нет
    Текст #2
    Идентификатор : 6
    Формат : UTF-8
    Идентификатор кодека : S_TEXT/UTF8
    Идентификатор кодека/Информация : UTF-8 Plain Text
    Продолжительность : 1 ч. 27 м.
    Битрейт : 55 бит/сек
    ElementCount : 1131
    Размер потока : 35, 3 Кбайт (0%)
    Заголовок : Full
    Язык : English
    Default : Нет
    Forced : Нет
    Меню
    00: 00: 00.000 : en: Chapter 1
    00: 06: 52.787 : en: Chapter 2
    00: 11: 49.166 : en: Chapter 3
    00: 15: 55.829 : en: Chapter 4
    00: 22: 10.662 : en: Chapter 5
    00: 28: 16.277 : en: Chapter 6
    00: 34: 40.119 : en: Chapter 7
    00: 38: 02.029 : en: Chapter 8
    00: 41: 06.464 : en: Chapter 9
    00: 51: 04.478 : en: Chapter 10
    00: 57: 03.253 : en: Chapter 11
    01: 02: 22.280 : en: Chapter 12
    01: 06: 19.934 : en: Chapter 13
    01: 13: 16.100 : en: Chapter 14
    01: 18: 19.986 : en: Chapter 15
    01: 22: 40.872 : en: Chapter 16
    YouTube

    Скриншоты для ознакомления


    Релизы мультфильма Звёздный десант: Предатель Марса/Starship Troopers: Traitor of Mars на NNM Club
    Время раздачи: с 9: 00 до 23: 00


    Онлайн видео Звёздный десант: Предатель Марса



    Звёздный десант: Предатель Марса/Starship Troopers: Traitor of Mars (2017) UHD BDRemux [H.265/2160p] [4K, HDR, 10-bit]
    Рейтинг →
     (голосов: 1, оценка 4/5, голосовать можно 1 раз )

    Другие торренты по теме:

  • Звёздный десант: Марсианский предатель / Starship Troopers: Traitor of Mars (2017) WEB-DL [H.264 / 720p-LQ] [MVO]
  • Звёздный десант: Марсианский предатель / Starship Troopers: Traitor of Mars (2017) WEB-DL [H.264 / 1080p-LQ] [EN]
  • Звёздный десант: Марсианский предатель / Starship Troopers: Traitor of Mars (2017) WEB-DL [H.264 / 720p-LQ] [EN]
  • Starship Troopers: Traitor of Mars |Звёздный десант: Предатель Марса [2017, Movie] WEB-DL 1080p eng+rus
  • Звёздный десант: Предатель Марса / Starship Troopers: Traitor of Mars (2017) WEB-DLRip [H.264] [AVO]
  • Звёздный десант: Предатель Марса / Starship Troopers: Traitor of Mars (2017) AC3 5.1 [Solod]
  • Звёздный десант: Предатель Марса / Starship Troopers: Traitor of Mars (2017) BDRip [H.264 / 1080p]
  • Звёздный десант: Предатель Марса / Starship Troopers: Traitor of Mars (2017) HDRip


    • Комментарии (0):

      Информация

      Информация

        Посетители, находящиеся в группе Гости, не могут оставлять комментарии в данной новости.

        ↓ Меню




        ↓ Опрос

        Вы добавили сайт в закладки?
        Да
        Нет


        Top 10 за месяц (Мультфильмы)