.
Авторизация | Регистрация
Хочешь лучшие торренты? Добавь свой email!
Добавить

Торрент скачать бесплатно

  • support: webmaster@btracker.org
» » 12 подвигов Астерикса / Les 12 travaux dAstérix (1976) BDRip [H.265 / 1080p] [10-bit] торрент скачать бесплатно


    12 подвигов Астерикса / Les 12 travaux dAstérix (1976) BDRip [H.265 / 1080p] [10-bit] торрент скачать бесплатно

    Опубликовал: Админ | Дата: 1-04-2018, 05:00 | .torrent скачали: 1

    12 подвигов Астерикса / Les 12 travaux dAstérix (1976) BDRip [H.265 / 1080p] [10-bit]Производство: Франция, Великобритания/Dargaud Films, Halas and Batchelor Cartoon Films, Les Productions René Goscinny, Studios Idefix
    Жанр: Рисованая анимация, Приключения, Комедия
    Режиссер: Рене Госинни, Генри Грюель, Альбер Юдерзо
    Персонажи: Роже Карель, Жак Морель, Пьер Торнад, Анри Лабюсьер, Жан Мартинелли, Паскаль Маззотти, Лоуренс Ризнер, Клод Дассе, Роже Люмон, Жерар Эрнандес

    Описание

    50 год до нашей эры. Великому Юлию Цезарю хуже горькой редьки надоели маленькая галльская деревушка, ее веселые и непокорные обитатели и их волшебное зелье. Как знать, может быть они и вправду боги? Но Цезарь не был бы Цезарем, если бы примирился с подобной ересью.
    Он решает дать Астериксу и его друзьям двенадцать заданий, выполнить которые не под силу ни одному смертному. Сказано-сделано. Конечно, времена Геркулеса давно прошли. Но при чем Геркулес, если есть Астерикс и Обеликс?
    Именно им вождь деревни Жизнестатистикс и поручает принять августейший вызов. Друзьям же только того и надо — ведь приключения продолжаются, а значит веселая жизнь обеспечена!

    Возраст: 0+ (для любой зрительской аудитории)
    Рейтинг MPAA: G (нет возрастных ограничений)
    Релиз от: Goor80
    Продолжительность: 01: 19: 05
    Качество видео: BDRip
    Перевод: Многоголосый закадровый, профессиональный x3; Авторский одноголосый (Живов)
    Субтитры: русские
    Видео: HEVC/H.265, 1760x1080, ~9963 Kbps
    Аудио 1: AC3, 2 ch, 192 Kbps (французский)
    Аудио 2: AAC, 2 ch, 192 Kbps (русский, многоголосый - R5)
    Аудио 3: AAC, 2 ch, 192 Kbps (русский, многоголосый - РТР)
    Аудио 4: AAC, 2 ch, 192 Kbps (русский, многоголосый - Новый канал)
    Аудио 5: AAC, 2 ch, 192 Kbps (русский, одноголосый - Ю. Живов)

    Общее
    Уникальный идентификатор : 116951387600955474882952242296973573357 (0x57FC0497D5FCEA5B594C3A63F0FE3CED)
    Полное имя : E: Video12 подвигов Астерикса (Les 12 travaux d\'Asterix).mkv
    Формат : Matroska
    Версия формата : Version 4/Version 2
    Размер файла : 6, 03 Гбайт
    Продолжительность : 1 ч. 19 м.
    Общий поток : 10, 9 Мбит/сек
    Название фильма : 12 подвигов Астерикса/Les 12 travaux d\'Astérix
    Дата выпуска : 1976
    Дата кодирования : UTC 2018-03-09 11: 20: 08
    Программа кодирования : mkvmerge v20.0.0 (\'I Am The Sun\') 64-bit
    Библиотека кодирования : libebml v1.3.5 + libmatroska v1.4.8
    Авторское право : Encoded by Goor80
    Обложка : Yes
    Attachments : cover.jpg
    Released by : Buba5473 for NNM-Club
    Видео
    Идентификатор : 1
    Формат : HEVC
    Формат/Информация : High Efficiency Video Coding
    Профиль формата : Main10@L4.1@Main
    Идентификатор кодека : V_MPEGH/ISO/HEVC
    Продолжительность : 1 ч. 19 м.
    Битрейт : 9963 Кбит/сек
    Ширина : 1760 пикселей
    Высота : 1080 пикселей
    Соотношение сторон : 16: 10
    Режим частоты кадров : Постоянный
    Частота кадров : 23, 976 (24000/1001) кадра/сек
    Цветовое пространство : YUV
    Субдискретизация насыщенности : 4: 2: 0
    Битовая глубина : 10 бит
    Бит/(Пиксели*Кадры) : 0.219
    Размер потока : 5, 50 Гбайт (91%)
    Default : Да
    Forced : Нет
    Цветовой диапазон : Limited
    Аудио #1
    Идентификатор : 2
    Формат : AC-3
    Формат/Информация : Audio Coding 3
    Параметр Endianness формата : Big
    Идентификатор кодека : A_AC3
    Продолжительность : 1 ч. 19 м.
    Вид битрейта : Постоянный
    Битрейт : 192 Кбит/сек
    Каналы : 2 канала
    Расположение каналов : Front: L R
    Частота : 48, 0 КГц
    Частота кадров : 31, 250 кадров/сек (1536 spf)
    Битовая глубина : 16 бит
    Метод сжатия : С потерями
    Размер потока : 109 Мбайт (2%)
    Язык : French
    ServiceKind/String : Complete Main
    Default : Нет
    Forced : Нет
    Аудио #2
    Идентификатор : 3
    Формат : AAC
    Формат/Информация : Advanced Audio Codec
    Профиль формата : LC
    Идентификатор кодека : A_AAC
    Продолжительность : 1 ч. 19 м.
    Битрейт : 192 Кбит/сек
    Каналы : 2 канала
    Расположение каналов : Front: L R
    Частота : 48, 0 КГц
    Частота кадров : 46, 875 кадров/сек (1024 spf)
    Метод сжатия : С потерями
    Задержка видео : 9 мс.
    Размер потока : 107 Мбайт (2%)
    Заголовок : Многоголосый - R5
    Язык : Russian
    Default : Да
    Forced : Нет
    Аудио #3
    Идентификатор : 4
    Формат : AAC
    Формат/Информация : Advanced Audio Codec
    Профиль формата : LC
    Идентификатор кодека : A_AAC
    Продолжительность : 1 ч. 19 м.
    Битрейт : 192 Кбит/сек
    Каналы : 2 канала
    Расположение каналов : Front: L R
    Частота : 48, 0 КГц
    Частота кадров : 46, 875 кадров/сек (1024 spf)
    Метод сжатия : С потерями
    Задержка видео : 9 мс.
    Размер потока : 107 Мбайт (2%)
    Заголовок : Многоголосый - телеканал РТР
    Язык : Russian
    Default : Нет
    Forced : Нет
    Аудио #4
    Идентификатор : 5
    Формат : AAC
    Формат/Информация : Advanced Audio Codec
    Профиль формата : LC
    Идентификатор кодека : A_AAC
    Продолжительность : 1 ч. 19 м.
    Битрейт : 192 Кбит/сек
    Каналы : 2 канала
    Расположение каналов : Front: L R
    Частота : 48, 0 КГц
    Частота кадров : 46, 875 кадров/сек (1024 spf)
    Метод сжатия : С потерями
    Задержка видео : 9 мс.
    Размер потока : 107 Мбайт (2%)
    Заголовок : Многоголосый - Новый канал
    Язык : Russian
    Default : Нет
    Forced : Нет
    Аудио #5
    Идентификатор : 6
    Формат : AAC
    Формат/Информация : Advanced Audio Codec
    Профиль формата : LC
    Идентификатор кодека : A_AAC
    Продолжительность : 1 ч. 19 м.
    Битрейт : 192 Кбит/сек
    Каналы : 2 канала
    Расположение каналов : Front: L R
    Частота : 48, 0 КГц
    Частота кадров : 46, 875 кадров/сек (1024 spf)
    Метод сжатия : С потерями
    Задержка видео : 9 мс.
    Размер потока : 107 Мбайт (2%)
    Заголовок : Авторский - Ю.Живов
    Язык : Russian
    Default : Нет
    Forced : Нет
    Текст
    Идентификатор : 7
    Формат : UTF-8
    Идентификатор кодека : S_TEXT/UTF8
    Идентификатор кодека/Информация : UTF-8 Plain Text
    Продолжительность : 1 ч. 18 м.
    Битрейт : 92 бит/сек
    ElementCount : 843
    Размер потока : 52, 9 Кбайт (0%)
    Заголовок : Русские
    Язык : Russian
    Default : Да
    Forced : Нет
    Меню
    00: 00: 00.000 : en: 00: 00: 00.000
    00: 09: 28.860 : en: 00: 09: 28.860
    00: 22: 30.140 : en: 00: 22: 30.140
    00: 33: 34.221 : en: 00: 33: 34.221
    00: 41: 39.247 : en: 00: 41: 39.247
    00: 52: 44.036 : en: 00: 52: 44.036
    01: 03: 12.831 : en: 01: 03: 12.831
    01: 08: 07.041 : en: 01: 08: 07.041
    XMP
    Xmp.video.FileName : E: Video12 подвигов Астерикса (Les 12 travaux d\'Asterix).mkv
    Xmp.video.FileSize : -9.53674e-007
    Xmp.video.MimeType : video/matroska
    Xmp.video.EBMLVersion : 1
    Xmp.video.EBMLReadVersion : 1
    Xmp.video.DocType : matroska
    Xmp.video.DocTypeVersion : 4
    Xmp.video.DocTypeReadVersion : 2
    Xmp.video.TimecodeScale : 0.001
    Xmp.video.MuxingApp : libebml v1.3.5 + libmatroska v1.4.8
    Xmp.video.WritingApp : mkvmerge v20.0.0 (\'I Am The Sun\') 64-bit
    Xmp.video.Duration : 4744907
    Xmp.video.DateUTC : 542287208
    Xmp.video.Title : 12 подвигов Астерикса/Les 12 travaux d\'Astérix
    Xmp.video.TotalStream : 28
    Xmp.video.TrackLacing : No
    Xmp.video.Codec : V_MPEGH/ISO/HEVC
    Xmp.video.FrameRate : 23.976
    Xmp.video.TrackLang : und
    Xmp.video.Width : 1760
    Xmp.video.Height : 1080
    Xmp.audio.DefaultOn : No
    Xmp.audio.Compressor : A_AAC
    Xmp.audio.DefaultDuration : 21333
    Xmp.audio.TrackLang : rus
    Xmp.audio.SampleRate : 48000
    Xmp.audio.ChannelType : Stereo
    Xmp.video.TrackName : Р СѓСЃСЃРєРёРµ
    Xmp.video.SubTTrackLacing : No
    Xmp.video.SubTCodec : S_TEXT/UTF8
    Xmp.video.SubTLang : rus
    Xmp.video.AttachFileName : cover.jpg
    Xmp.video.AttachFileMIME : image/jpeg
    Xmp.video.AttachFileUID : -2774960932311521863
    Xmp.video.AspectRatio : 16: 10
    H.265/HEVC (High Efficiency Video Coding) - это новый стандарт кодирования видео.
    *Рипы в фомате HEVC, в настоящее время не поддерживается большинством аппаратных проигрывателей.
    *Для корректного воспроизведения может потребоваться обновление ПО.
    *Стандарт H.265/HEVC является логическим продолжением стандарта H.264/AVC (Advanced Video Coding), и характеризуется более эффективными алгоритмами сжатия, а также поддержкой высокого разрешения вплоть до 8K UHD (8192x4320). Первая версия стандарта H.265 была опубликована в начале 2013 года.
    Любителям решения из коробки - установить последнюю версию на выбор:
    Media Player Classic - Black Edition (MPC-BE)
    VLC media player
    Daum Pot Player
    GOM Media Player
    Любителям WMP и других плееров, использующих по умолчанию для воспроизведения системные кодеки+сплитеры - установить K-Lite Codec Pack версии 10.1.0 и выше.
    Любимые плееры, не использующии по умолчанию для воспроизведения системные кодеки+сплитеры, нужно перенастроить на использование оных.

    Скриншоты для ознакомления



    Все одноименные релизы в Клубе
    Время раздачи: с 11: 00 до 21: 00 по Новосибирску (UTC +7) (до появления первых 3-5 скачавших)


    Онлайн видео 12 подвигов Астерикса



    12 подвигов Астерикса/Les 12 travaux dAstérix (1976) BDRip [H.265/1080p] [10-bit]
    Рейтинг →
     (голосов: 1, оценка 4/5, голосовать можно 1 раз )

    Другие торренты по теме:

  • 12 подвигов Астерикса / Les douze travaux dAsterix (1976) BDRip [H.264 / 1080p-LQ]


    • Комментарии (0):

      Информация

      Информация

        Посетители, находящиеся в группе Гости, не могут оставлять комментарии в данной новости.

        ↓ Меню




        ↓ Опрос

        Вы добавили сайт в закладки?
        Да
        Нет


        Top 10 за месяц (Мультфильмы)