.
Авторизация | Регистрация
Хочешь лучшие торренты? Добавь свой email!
Добавить

Торрент скачать бесплатно

  • support: webmaster@btracker.org
» » Отряд самоубийц: Строгое наказание / Suicide Squad: Hell to Pay (2018) WEB-DL [H.264 / 720p-LQ] [EN / EN Sub] торрент скачать бесплатно


    Отряд самоубийц: Строгое наказание / Suicide Squad: Hell to Pay (2018) WEB-DL [H.264 / 720p-LQ] [EN / EN Sub] торрент скачать бесплатно

    Опубликовал: Админ | Дата: 1-04-2018, 05:00 | .torrent скачали: 0

    Отряд самоубийц: Строгое наказание / Suicide Squad: Hell to Pay (2018) WEB-DL [H.264 / 720p-LQ] [EN / EN Sub]Производство: США, DC Entertainment
    Жанр: Мультфильм, Боевик
    Режиссер: Сэм Лью
    Персонажи: Кристиан Слэйтер, Си Томас Хауэлл, Тара Стронг, Ванесса Уильямс, Даня Рамирес, Билли Браун, Лиам МакИнтайр, Кристин Бауэр, Мэттью Мерсер, Гидеон Эмери ...

    Описание

    Целью отряда Икс становится мощный мистический объект, который они попытаются украсть, рискуя жизнями.

    Рейтинг MPAA: R (лицам до 17 лет обязательно присутствие взрослого)
    Дата мировой премьеры: 27 марта 2018, ...
    Продолжительность: 01: 26: 06
    Качество видео: WEB-DL 720p
    Перевод: Отсутствует
    Язык озвучки: Английский
    Субтитры: Английские
    Видео: AVC, 1280x720 (16: 9), 24.000 fps, 4 072 Kbps (0.184 bit/pixel)
    Аудио: AC-3, 48.0 KHz, 6 ch, 384 Kbps, CBR (English)
    General
    Complete name : Suicide.Squad.Hell.to.Pay.2018.720p.WEB-DL.DD5.1.H264.mkv
    Format : Matroska
    Format version : Version 4/Version 2
    File size : 2.68 GiB
    Duration : 1 h 26 min
    Overall bit rate : 4 458 kb/s
    Encoded date : UTC 2018-03-27 07: 52: 19
    Writing application : mkvmerge v21.0.0 (\'Tardigrades Will Inherit The Earth\') 64-bit
    Writing library : libebml v1.3.5 + libmatroska v1.4.8
    Video
    ID : 1
    Format : AVC
    Format/Info : Advanced Video Codec
    Format profile : High@L3.1
    Format settings : 2 Ref Frames
    Format settings, CABAC : No
    Format settings, ReFrames : 2 frames
    Codec ID : V_MPEG4/ISO/AVC
    Duration : 1 h 26 min
    Bit rate : 4 072 kb/s
    Width : 1 280 pixels
    Height : 720 pixels
    Display aspect ratio : 16: 9
    Frame rate mode : Constant
    Frame rate : 23.976 FPS
    Color space : YUV
    Chroma subsampling : 4: 2: 0
    Bit depth : 8 bits
    Scan type : Progressive
    Bits/(Pixel*Frame) : 0.184
    Stream size : 2.45 GiB (91%)
    Language : English
    Default : Yes
    Forced : No
    Color range : Limited
    Color primaries : BT.709
    Transfer characteristics : BT.709
    Matrix coefficients : BT.709
    Audio
    ID : 2
    Format : AC-3
    Format/Info : Audio Coding 3
    Codec ID : A_AC3
    Duration : 1 h 26 min
    Bit rate mode : Constant
    Bit rate : 384 kb/s
    Channel(s) : 6 channels
    Channel positions : Front: L C R, Side: L R, LFE
    Sampling rate : 48.0 kHz
    Frame rate : 31.250 FPS (1536 SPF)
    Bit depth : 16 bits
    Compression mode : Lossy
    Stream size : 236 MiB (9%)
    Language : English
    Service kind : Complete Main
    Default : Yes
    Forced : No
    Text
    ID : 3
    Format : UTF-8
    Codec ID : S_TEXT/UTF8
    Codec ID/Info : UTF-8 Plain Text
    Duration : 1 h 21 min
    Bit rate : 46 b/s
    Count of elements : 838
    Stream size : 27.5 KiB (0%)
    Language : English
    Default : Yes
    Forced : No
    Menu
    00: 00: 00.000 : en: 1
    00: 10: 21.000 : en: 2
    00: 19: 57.000 : en: 3
    00: 35: 58.000 : en: 4
    00: 48: 13.000 : en: 5
    00: 55: 38.000 : en: 6
    01: 01: 51.000 : en: 7
    01: 15: 39.000 : en: 8
    01: 22: 49.000 : en: 9

    Скриншоты для ознакомления



    Все одноименные релизы в Клубе
    Время раздачи: 24/7 (круглосуточно) (до появления первых 3-5 скачавших)


    Онлайн видео Отряд самоубийц: Строгое наказание



    Отряд самоубийц: Строгое наказание/Suicide Squad: Hell to Pay (2018) WEB-DL [H.264/720p-LQ] [EN/EN Sub]
    Рейтинг →
     (голосов: 1, оценка 3/5, голосовать можно 1 раз )

    Другие торренты по теме:

  • Отряд самоубийц / Suicide Squad (2016) WEBRip [H.264 / 1080p] [Трейлер] [EN] скачать через торрент бесплатно
  • Отряд самоубийц / Suicide Squad (2016) WEBRip [H.264 / 1080p] [Трейлер] скачать через торрент бесплатно
  • Отряд самоубийц / Suicide Squad(2016)
  • Suicide Squad: The Album - Отряд самоубийц (2016) [MP3|320 Kbps] <Soundtrack>
  • Отряд самоубийц / Suicide Squad (2016) TS
  • VA - Suicide Squad / Отряд самоубийц (The Album) (2016) [FLAC|Lossless|WEB-DL|tracks]<Soundtrack>
  • Steven Price - Suicide Squad / Отряд самоубийц (Original Motion Picture Score) (2016) Deluxe Edition [FLAC|Lossless|WEB-DL|tracks]<Soundtrack, Score>
  • Steven Price - Suicide Squad / Отряд самоубийц (Original Motion Picture Score) (2016) Deluxe Edition [MP3|320 кб / с]<Soundtrack, Score>


    • Комментарии (0):

      Информация

      Информация

        Посетители, находящиеся в группе Гости, не могут оставлять комментарии в данной новости.

        ↓ Меню




        ↓ Опрос

        Вы добавили сайт в закладки?
        Да
        Нет


        Top 10 за месяц (Мультфильмы)