.
Авторизация | Регистрация
Хочешь лучшие торренты? Добавь свой email!
Добавить

Торрент скачать бесплатно

» » Мы – монстры / Happy Family (2017) BDRip 3D [H.264 / 1080p] [Вертикальная анаморфная стереопара] [hand made 16:9] торрент скачать бесплатно


    Мы – монстры / Happy Family (2017) BDRip 3D [H.264 / 1080p] [Вертикальная анаморфная стереопара] [hand made 16:9] торрент скачать бесплатно

    Опубликовал: Админ | Дата: 31-03-2018, 05:00 | .torrent скачали: 0

    Мы – монстры / Happy Family (2017) BDRip 3D [H.264 / 1080p] [Вертикальная анаморфная стереопара] [hand made 16:9]Производство: Великобритания, Германия
    Жанр: мультфильм, ужасы, комедия, семейный
    Режиссер: Хольгер Таппе

    Актеры
    Эмили Уотсон, Джейсон Айзекс, Ник Фрост, Джессика Браун-Финдлэй, Селия Имри, Кэтрин Тейт, Итан Раус, Ивэн Бэйли, Эмма Тейт, Джессика МакДональд

    Описание

    По воле могущественного Дракулы вся семейка Уишбоун сталкивается с монстрическими проблемами: мама превращается в вампира, папа — в Франкенштейна, а их дети — в мумию и оборотня. Теперь они должны сплотиться, чтобы победить повелителя тьмы и снова стать не только людьми, но и дружной семьей.

    Возраст: 6+ (зрителям, достигшим 6 лет)
    Рейтинг MPAA: PG (рекомендуется присутствие родителей)
    Дата мировой премьеры: 17 августа 2017
    Дата российской премьеры: 26 октября 2017
    Дата выхода DVD/Blu-ray релиза: 19 февраля 2018, НД Плэй
    Релиз от: NNM-Club, RG Всё лучшее - детям!
    Продолжительность: 01: 33: 02
    Качество видео: BDRip 3D
    Перевод: Дублированный (iTunes)
    Субтитры: Отсутствуют
    Видео: AVC/H.264, 1920x1080, ~14, 6 Мбит/сек
    Аудио 1: AC3 5.1 384 Кбит/сек - Русский
    Аудио 2: AC3 5.1 384 Кбит/сек - Украинский
    Аудио 3: AC3 5.1 640 Кбит/сек - Английский

    Общее
    Уникальный идентификатор : 246930310858092904688162824349598918639 (0xB9C50C48CCE2D468A82A3C530C60A7EF)
    Полное имя : K: tempHAPPY_FAMILY_3D.mkv
    Формат : Matroska
    Версия формата : Version 2
    Размер файла : 10, 6 Гбайт
    Продолжительность : 1 ч. 33 м.
    Общий поток : 16, 3 Мбит/сек
    Название фильма : HAPPY_FAMILY_3D_Crop_HO/U
    Дата кодирования : UTC 2018-03-29 14: 20: 59
    Программа кодирования : mkvmerge v5.8.0 (\'No Sleep/Pillow\') built on Sep 2 2012 15: 37: 04
    Библиотека кодирования : libebml v1.2.3 + libmatroska v1.3.0
    Видео
    Идентификатор : 1
    Формат : AVC
    Формат/Информация : Advanced Video Codec
    Профиль формата : High@L4.1
    Параметр CABAC формата : Да
    Параметр ReFrames формата : 4 кадра
    Идентификатор кодека : V_MPEG4/ISO/AVC
    Продолжительность : 1 ч. 33 м.
    Битрейт : 14, 6 Мбит/сек
    Ширина : 1920 пикселей
    Высота : 1080 пикселей
    Соотношение сторон : 16: 9
    Режим частоты кадров : Постоянный
    Частота кадров : 23, 976 (24000/1001) кадра/сек
    Цветовое пространство : YUV
    Субдискретизация насыщенности : 4: 2: 0
    Битовая глубина : 8 бит
    Тип развёртки : Прогрессивная
    Бит/(Пиксели*Кадры) : 0.293
    Размер потока : 9, 47 Гбайт (89%)
    Заголовок : rip by I/N
    Библиотека кодирования : x264 core 128 r2216M 198a7ea
    Настройки программы : cabac=1/ref=4/deblock=1: -3: -3/analyse=0x3: 0x133/me=umh/subme=10/psy=1/psy_rd=1.00: 0.15/mixed_ref=1/me_range=64/chroma_me=1/trellis=2/8x8dct=1/cqm=0/deadzone=21, 11/fast_pskip=1/chroma_qp_offset=-3/threads=8/lookahead_threads=1/sliced_threads=0/nr=0/decimate=1/interlaced=0/bluray_compat=0/constrained_intra=0/bframes=12/b_pyramid=2/b_adapt=2/b_bias=0/direct=3/weightb=1/open_gop=0/weightp=2/keyint=230/keyint_min=23/scenecut=40/intra_refresh=0/rc_lookahead=40/rc=crf/mbtree=1/crf=16.0/qcomp=0.60/qpmin=10/qpmax=69/qpstep=4/vbv_maxrate=40000/vbv_bufsize=30000/crf_max=30.0/nal_hrd=none/ip_ratio=1.40/aq=2: 0.80
    Default : Да
    Forced : Нет
    Аудио #1
    Идентификатор : 2
    Формат : AC-3
    Формат/Информация : Audio Coding 3
    Параметр Endianness формата : Big
    Идентификатор кодека : A_AC3
    Продолжительность : 1 ч. 33 м.
    Вид битрейта : Постоянный
    Битрейт : 384 Кбит/сек
    Каналы : 6 каналов
    Расположение каналов : Front: L C R, Side: L R, LFE
    Частота : 48, 0 КГц
    Частота кадров : 31, 250 кадров/сек (1536 spf)
    Битовая глубина : 16 бит
    Метод сжатия : С потерями
    Размер потока : 256 Мбайт (2%)
    Заголовок : Дубляж - iTunes
    Язык : Russian
    ServiceKind/String : Complete Main
    Default : Да
    Forced : Нет
    Аудио #2
    Идентификатор : 3
    Формат : AC-3
    Формат/Информация : Audio Coding 3
    Параметр Endianness формата : Big
    Идентификатор кодека : A_AC3
    Продолжительность : 1 ч. 33 м.
    Вид битрейта : Постоянный
    Битрейт : 384 Кбит/сек
    Каналы : 6 каналов
    Расположение каналов : Front: L C R, Side: L R, LFE
    Частота : 48, 0 КГц
    Частота кадров : 31, 250 кадров/сек (1536 spf)
    Битовая глубина : 16 бит
    Метод сжатия : С потерями
    Размер потока : 256 Мбайт (2%)
    Заголовок : Дубляж - iTunes
    Язык : Ukrainian
    ServiceKind/String : Complete Main
    Default : Нет
    Forced : Нет
    Аудио #3
    Идентификатор : 4
    Формат : AC-3
    Формат/Информация : Audio Coding 3
    Параметр Endianness формата : Big
    Идентификатор кодека : A_AC3
    Продолжительность : 1 ч. 33 м.
    Вид битрейта : Постоянный
    Битрейт : 640 Кбит/сек
    Каналы : 6 каналов
    Расположение каналов : Front: L C R, Side: L R, LFE
    Частота : 48, 0 КГц
    Частота кадров : 31, 250 кадров/сек (1536 spf)
    Битовая глубина : 16 бит
    Метод сжатия : С потерями
    Размер потока : 426 Мбайт (4%)
    Язык : English
    ServiceKind/String : Complete Main
    Default : Нет
    Forced : Нет
    Меню
    00: 00: 00.000 : en: 00: 00: 00.000
    00: 06: 38.356 : en: 00: 06: 38.356
    00: 14: 13.770 : en: 00: 14: 13.770
    00: 20: 34.108 : en: 00: 20: 34.108
    00: 29: 57.754 : en: 00: 29: 57.754
    00: 38: 53.540 : en: 00: 38: 53.540
    00: 45: 52.917 : en: 00: 45: 52.917
    00: 52: 04.371 : en: 00: 52: 04.371
    00: 59: 13.008 : en: 00: 59: 13.008
    01: 12: 23.548 : en: 01: 12: 23.548
    01: 19: 19.088 : en: 01: 19: 19.088
    01: 28: 45.987 : en: 01: 28: 45.987
    01: 33: 02.243 : en: 01: 33: 02.243


    Онлайн видео Мы – монстры



    Мы – монстры/Happy Family (2017) BDRip 3D [H.264/1080p] [Вертикальная анаморфная стереопара] [hand made 16:9]
    Рейтинг →
     (голосов: 1, оценка 3/5, голосовать можно 1 раз )

    Другие торренты по теме:

  • Мы – монстры / Happy Family (2017) WEB-DL [H.264 / 1080p-LQ]
  • Мы – монстры / Happy Family (2017) BDRip 3D [H.264 / 1080p] [Вертикальная анаморфная стереопара]


    • Комментарии (0):

      Информация

      Информация

        Посетители, находящиеся в группе Гости, не могут оставлять комментарии в данной новости.

        ↓ Меню




        ↓ Опрос

        Вы добавили сайт в закладки?
        Да
        Нет


        Top 10 за месяц (Мультфильмы)