.
Авторизация | Регистрация
Хочешь лучшие торренты? Добавь свой email!
Добавить

Торрент скачать бесплатно

  • support: webmaster@btracker.org
» » Три богатыря и принцесса Египта (2017) BDRip [H.265 / 1080p-LQ] торрент скачать бесплатно


    Три богатыря и принцесса Египта (2017) BDRip [H.265 / 1080p-LQ] торрент скачать бесплатно

    Опубликовал: Админ | Дата: 31-03-2018, 05:00 | .torrent скачали: 2

    Три богатыря и принцесса Египта (2017) BDRip [H.265 / 1080p-LQ]Производство: Россия
    Жанр: Мультфильм, приключения, семейный, фэнтези
    Режиссер: Константин Феоктистов
    Персонажи: Олег Куликович, Валерий Соловьёв, Дмитрий Быковский-Ромашов, Сергей Маковецкий, Дмитрий Высоцкий (I), Александр Быковский, Елена Шульман, Лия Медведева, Мария Цветкова-Овсянникова, Анатолий Петров

    Описание

    В новогоднюю ночь, в то время, как Князь готовится произнести торжественную речь, а Юлий распаковывает подарки и следит за приготовлением праздничного стола, богатыри едут в гости к Алёше и встречают там странного товарища по имени Дурило.

    Возраст: 6+ (зрителям, достигшим 6 лет)
    Дата российской премьеры: 28 декабря 2017, Наше Кино
    Дата выхода DVD/Blu-ray релиза: 30 января 2018, СТВ
    Релиз от: M@kSIMus
    Продолжительность: 01: 11: 45
    Качество видео: BDRip
    Субтитры: Отсутствуют
    Видео: HEVC/H.265, 1920x1080, ~3817 Kbps
    Аудио: AC3, 6 ch, 448 Kbps

    Общее
    Уникальный идентификатор : 237663884830958763468032540615063590886 (0xB2CC663537ACB1302AC7C504915357E6)
    Полное имя : J: ФИЛЬМЫТри богатыря и принцесса Египта (2017) BDRip 1080p HEVC 8 bit.mkv
    Формат : Matroska
    Версия формата : Version 4/Version 2
    Размер файла : 2, 14 Гбайт
    Продолжительность : 1 ч. 11 м.
    Общий поток : 4267 Кбит/сек
    Дата кодирования : UTC 2018-03-27 00: 59: 50
    Программа кодирования : mkvmerge v19.0.0 (\'Brave Captain\') 64-bit
    Библиотека кодирования : libebml v1.3.5 + libmatroska v1.4.8
    Обложка : Yes
    Attachments : cover.jpg
    Видео
    Идентификатор : 1
    Формат : HEVC
    Формат/Информация : High Efficiency Video Coding
    Профиль формата : Main@L4.1@Main
    Идентификатор кодека : V_MPEGH/ISO/HEVC
    Продолжительность : 1 ч. 11 м.
    Битрейт : 3817 Кбит/сек
    Ширина : 1920 пикселей
    Высота : 1080 пикселей
    Соотношение сторон : 16: 9
    Режим частоты кадров : Постоянный
    Частота кадров : 24, 000 кадра/сек
    Цветовое пространство : YUV
    Субдискретизация насыщенности : 4: 2: 0
    Битовая глубина : 8 бит
    Бит/(Пиксели*Кадры) : 0.077
    Размер потока : 1, 91 Гбайт (89%)
    Библиотека кодирования : x265 2.7+8-613d9f443769: Windowsclang 7.0.064 bit 8bit
    Настройки программы : cpuid=1050111/frame-threads=5/wpp/no-pmode/no-pme/no-psnr/no-ssim/log-level=3/input-csp=1/input-res=1920x1080/interlace=0/total-frames=0/level-idc=41/high-tier=1/uhd-bd=0/ref=3/allow-non-conformance/no-repeat-t_heads/annexb/no-aud/no-hrd/info/hash=0/no-temporal-layers/open-gop/min-keyint=24/keyint=240/gop-lookahead=0/bframes=4/b-adapt=2/b-pyramid/bframe-bias=0/rc-lookahead=20/lookahead-slices=6/scenecut=40/radl=0/no-intra-refresh/ctu=64/min-cu-size=8/no-rect/no-amp/max-tu-size=32/tu-inter-depth=1/tu-intra-depth=1/limit-tu=0/rdoq-level=0/dynamic-rd=0.00/no-ssim-rd/signhide/no-tskip/nr-intra=0/nr-inter=0/no-constrained-intra/strong-intra-smoothing/max-merge=2/limit-refs=3/no-limit-modes/me=1/subme=5/merange=57/temporal-mvp/weightp/no-weightb/no-analyze-src-pics/deblock=-5: -5/sao/no-sao-non-deblock/rd=3/no-early-skip/rskip/no-fast-intra/no-tskip-fast/no-cu-lossless/no-b-intra/no-splitrd-skip/rdpenalty=0/psy-rd=2.00/psy-rdoq=0.00/no-rd-refine/no-lossless/cbqpoffs=0/crqpoffs=0/rc=crf/crf=16.0/qcomp=0.60/qpstep=4/stats-write=0/stats-read=0/vbv-maxrate=5200/vbv-bufsize=3714/vbv-init=0.9/crf-max=30.0/crf-min=0.0/ipratio=1.40/pbratio=1.30/aq-mode=1/aq-strength=1.00/cutree/zone-count=0/no-strict-cbr/qg-size=32/no-rc-grain/qpmax=69/qpmin=0/no-const-vbv/sar=1/overscan=0/videoformat=5/range=0/colorprim=1/transfer=1/colormatrix=1/chromaloc=0/display-window=0/max-cll=0, 0/min-luma=0/max-luma=255/log2-max-poc-lsb=8/vui-timing-info/vui-hrd-info/slices=1/no-opt-qp-pps/no-opt-ref-list-length-pps/no-multi-pass-opt-rps/scenecut-bias=0.05/no-opt-cu-delta-qp/no-aq-motion/no-hdr/no-hdr-opt/no-dhdr10-opt/analysis-reuse-level=5/scale-factor=0/refine-intra=0/refine-inter=0/refine-mv=0/no-limit-sao/ctu-info=0/no-lowpass-dct/refine-mv-type=0/copy-pic=1/max-ausize-factor=1.0
    Язык : Russian
    Default : Да
    Forced : Нет
    Цветовой диапазон : Limited
    Основные цвета : BT.709
    Характеристики трансфера : BT.709
    Коэффициенты матрицы : BT.709
    Аудио
    Идентификатор : 2
    Формат : AC-3
    Формат/Информация : Audio Coding 3
    Идентификатор кодека : A_AC3
    Продолжительность : 1 ч. 11 м.
    Вид битрейта : Постоянный
    Битрейт : 448 Кбит/сек
    Каналы : 6 каналов
    Расположение каналов : Front: L C R, Side: L R, LFE
    Частота : 48, 0 КГц
    Частота кадров : 31, 250 кадров/сек (1536 SPF)
    Битовая глубина : 16 бит
    Метод сжатия : С потерями
    Размер потока : 230 Мбайт (11%)
    Язык : Russian
    ServiceKind/String : Complete Main
    Default : Да
    Forced : Нет
    Доп. информация : - H.265/HEVC (High Efficiency Video Coding) - это новый стандарт кодирования видео.
    - Стандарт H.265/HEVC является логическим продолжением стандарта H.264/AVC (Advanced Video Coding), и характеризуется более эффективными алгоритмами сжатия, а также поддержкой высокого разрешения вплоть до 8K UHD (8192x4320). Первая версия стандарта H.265 была опубликована в начале 2013 года.
    - Рипы в фомате HEVC поддерживается не всеми аппаратными проигрывателями.
    - Для корректного воспроизведения может потребоваться обновление ПО.
    - Владельцам несовместимого железа просьба не беспокоить, есть альтернативные релизы.

    Скриншоты для ознакомления



    Все одноименные релизы в Клубе
    Время раздачи: с 8: 00 до 22: 00 (до появления первых 3-5 скачавших)


    Онлайн видео Три богатыря и принцесса Египта (2017) BDRip [H.265



    Три богатыря и принцесса Египта (2017) BDRip [H.265/1080p-LQ]
    Рейтинг →
     (голосов: 1, оценка 5/5, голосовать можно 1 раз )

    Другие торренты по теме:

  • Три богатыря и принцесса Египта (2017) WEB-DLRip
  • Три богатыря и принцесса Египта (2017) WEB-DL [H.264 / 1080p-LQ]
  • Три богатыря и принцесса Египта (2017) WEB-DL [1080p] ATV
  • Три богатыря и принцесса Египта (2017) WEB-DL [576p] iPad
  • Три богатыря и принцесса Египта (2017) BDRemux [H.264 / 1080p]
  • Три богатыря и принцесса Египта (2017) Blu-ray [H.264 / 1080p]


    • Комментарии (0):

      Информация

      Информация

        Посетители, находящиеся в группе Гости, не могут оставлять комментарии в данной новости.

        ↓ Меню




        ↓ Опрос

        Вы добавили сайт в закладки?
        Да
        Нет


        Top 10 за месяц (Мультфильмы)