.
Авторизация | Регистрация
Хочешь лучшие торренты? Добавь свой email!
Добавить

Торрент скачать бесплатно

» » Три богатыря и принцесса Египта (2017) BDRemux [H.264 / 1080p] торрент скачать бесплатно


    Три богатыря и принцесса Египта (2017) BDRemux [H.264 / 1080p] торрент скачать бесплатно

    Опубликовал: Админ | Дата: 29-03-2018, 05:00 | .torrent скачали: 1

    Три богатыря и принцесса Египта (2017) BDRemux [H.264 / 1080p]Производство: Россия, Кинокомпания СТВ, Анимационная студия Мельница
    Жанр: Мультфильм, Приключения, Семейный
    Режиссер: Константин Феоктистов
    Продюсер: Сергей Сельянов, Александр Боярский
    Персонажи: Олег Куликович, Валерий Соловьев, Дмитрий Быковский-Ромашов, Сергей Маковецкий, Дмитрий Высоцкий, Александр Быковский, Елена Шульман, Лия Медведева, Мария Цветкова-Овсянникова, Анатолий Петров

    Описание

    В новогоднюю ночь, в то время, как Князь готовится произнести торжественную речь, а Юлий распаковывает подарки и следит за приготовлением праздничного стола, богатыри едут в гости к Алеше, и встречают там странного товарища по имени Дурило. Оказывается, это тринадцатый месяц, который никому особенно не нужен, и который пытается осуществить свое заветное желание — стать самым главным месяцем в году. Только и надо ему, что притвориться Дедом Морозом, показать доверчивому Алеше пару фокусов, подружиться с богатырями и оказаться в Египте — стране фараонов и древних пирамид. А дальше — пирамиды, заклинание, Древний огонь — и дело в шляпе! Но не так-то просто осуществить свое коварное желание, когда на пути у тебя встают не только три богатыри, но и их жены, Князь и Юлий, Змей Горыныч и Дед Мороз и даже — сама принцесса Нефертити!

    Возраст: 6+ (зрителям, достигшим 6 лет)
    Дата мировой премьеры: 29 декабря 2017
    Дата российской премьеры: 28 декабря 2017, Наше Кино
    Релиз от: MR Sergei
    Продолжительность: 01: 11: 46
    Качество видео: BDRemux 1080p
    Перевод: Не требуется (Русский)
    Субтитры: Отсутствуют
    Видео: AVC/H.264, 1920x1080 (16: 9), ~23.7 Mbps, 24 fps
    Аудио #1: DTS, 5.1, 48 kHz, 1509 kbps, 24-bit
    Аудио #2: AC3, 5.1, 48 kHz, 640 kbps, DN -4dB

    Общее
    Уникальный идентификатор : 84934115931443310533664019788483389932 (0x3FE5B7393EC524F0EF3418CDEC55E9EC)
    Полное имя : D: ФильмыTri.bogatyrya.i.princesa.Egipta.2017.BDRemux.1080p.NNMClub.mkv
    Формат : Matroska
    Версия формата : Version 4/Version 2
    Размер файла : 13, 0 Гбайт
    Продолжительность : 1 ч. 11 м.
    Режим общего битрейта : Переменный
    Общий поток : 25, 8 Мбит/сек
    Название фильма : Tri.bogatyrya.i.princesa.Egipta.2017.BDRemux.1080p.NNMClub
    Дата кодирования : UTC 2018-03-27 14: 22: 18
    Программа кодирования : mkvmerge v21.0.0 (\'Tardigrades Will Inherit The Earth\') 64-bit
    Библиотека кодирования : libebml v1.3.5 + libmatroska v1.4.8
    Attachments : Tri-bogatirya-i-printsessa-Egipta.jpg
    Видео
    Идентификатор : 1
    Формат : AVC
    Формат/Информация : Advanced Video Codec
    Профиль формата : High@L4.1
    Настройки формата : CABAC/4 Ref Frames
    Параметр CABAC формата : Да
    Параметр RefFrames формата : 4 кадра
    Параметр GOP формата : M=3, N=24
    Идентификатор кодека : V_MPEG4/ISO/AVC
    Продолжительность : 1 ч. 11 м.
    Вид битрейта : Переменный
    Битрейт : 23, 7 Мбит/сек
    Максимальный битрейт : 35, 0 Мбит/сек
    Ширина : 1920 пикселей
    Высота : 1080 пикселей
    Соотношение сторон : 16: 9
    Режим частоты кадров : Постоянный
    Частота кадров : 24, 000 кадра/сек
    Стандарт вещания : NTSC
    Цветовое пространство : YUV
    Субдискретизация насыщенности : 4: 2: 0
    Битовая глубина : 8 бит
    Тип развёртки : Прогрессивная
    Бит/(Пиксели*Кадры) : 0.476
    Размер потока : 11, 9 Гбайт (92%)
    Язык : Russian
    Default : Да
    Forced : Нет
    Цветовой диапазон : Limited
    Основные цвета : BT.709
    Характеристики трансфера : BT.709
    Коэффициенты матрицы : BT.709
    Аудио #1
    Идентификатор : 2
    Формат : DTS
    Формат/Информация : Digital Theater Systems
    Идентификатор кодека : A_DTS
    Продолжительность : 1 ч. 11 м.
    Вид битрейта : Постоянный
    Битрейт : 1510 Кбит/сек
    Каналы : 6 каналов
    Расположение каналов : Front: L C R, Side: L R, LFE
    Частота : 48, 0 КГц
    Частота кадров : 93, 750 кадра/сек (512 SPF)
    Битовая глубина : 24 бит
    Метод сжатия : С потерями
    Размер потока : 775 Мбайт (6%)
    Язык : Russian
    Default : Да
    Forced : Нет
    Аудио #2
    Идентификатор : 3
    Формат : AC-3
    Формат/Информация : Audio Coding 3
    Идентификатор кодека : A_AC3
    Продолжительность : 1 ч. 11 м.
    Вид битрейта : Постоянный
    Битрейт : 640 Кбит/сек
    Каналы : 6 каналов
    Расположение каналов : Front: L C R, Side: L R, LFE
    Частота : 48, 0 КГц
    Частота кадров : 31, 250 кадров/сек (1536 SPF)
    Битовая глубина : 16 бит
    Метод сжатия : С потерями
    Размер потока : 328 Мбайт (2%)
    Язык : Russian
    ServiceKind/String : Complete Main
    Default : Нет
    Forced : Нет
    Меню
    00: 00: 00.000 : en: 00: 00: 00.000
    00: 05: 17.042 : en: 00: 05: 17.042
    00: 11: 43.625 : en: 00: 11: 43.625
    00: 18: 26.208 : en: 00: 18: 26.208
    00: 22: 34.500 : en: 00: 22: 34.500
    00: 29: 53.042 : en: 00: 29: 53.042
    00: 37: 39.083 : en: 00: 37: 39.083
    00: 44: 21.250 : en: 00: 44: 21.250
    00: 50: 17.542 : en: 00: 50: 17.542
    00: 56: 49.417 : en: 00: 56: 49.417
    01: 01: 27.625 : en: 01: 01: 27.625
    01: 05: 53.667 : en: 01: 05: 53.667

    File: D: ФильмыTri.bogatyrya.i.princesa.Egipta.2017.BDRemux.1080p.NNMClub.mkv
    Duration: 01: 11: 46 (4305.71)
    Track #1: video
    lang: rus (15)
    codc: V_MPEG4/ISO/AVC - H264/AVC (22)
    reso: 1920x1080 (1920x1080) - 16: 9
    fram: 24 fps
    rate: 23691 kbps (23691.2)
    dura: 01: 11: 46 (4305.67)
    size: 11.88 GB (12750818110)
    Track #2: audio
    lang: rus - Russian (15)
    codc: A_DTS - DTS (13)
    chan: 6 - 5.1 Surround
    samp: 48000 Hz
    rate: 1510 kbps (1509.88)
    dura: 01: 11: 46 (4305.59)
    size: 774.97 MB (812616117)
    Track #3: audio
    lang: rus - Russian (15)
    codc: A_AC3 - AC3 (2)
    chan: 6 - 5.1 Surround
    samp: 48000 Hz
    rate: 640 kbps (640.08)
    dura: 01: 11: 45 (4305.44)
    size: 328.52 MB (344475994)
    Sizes: (check sanity)
    disk: 12.95 GB (13910068927)
    atts: 530.30 KB (543027)
    trac: 4.95 GB (5317975629) based on track size
    bitr: 12.95 GB (13907942456) based on bitrate
    tdif: 8.00 GB (8591550271) 61.76%
    bdif: 1.51 MB (1583443) 0.01%

    Скриншоты для ознакомления



    Все одноименные релизы в Клубе
    Время раздачи: 24/7 (до появления первых 3-5 скачавших)


    Онлайн видео Три богатыря и принцесса Египта (2017) BDRemux [H.264



    Три богатыря и принцесса Египта (2017) BDRemux [H.264/1080p]
    Рейтинг →
     (голосов: 1, оценка 4/5, голосовать можно 1 раз )

    Другие торренты по теме:

  • Три богатыря и принцесса Египта (2017) WEB-DLRip
  • Три богатыря и принцесса Египта (2017) WEB-DL [H.264 / 1080p-LQ]
  • Три богатыря и принцесса Египта (2017) WEB-DL [1080p] ATV
  • Три богатыря и принцесса Египта (2017) WEB-DL [576p] iPad
  • Три богатыря и принцесса Египта (2017) Blu-ray [H.264 / 1080p]
  • Три богатыря и принцесса Египта (2017) BDRip [H.265 / 1080p-LQ]


    • Комментарии (0):

      Информация

      Информация

        Посетители, находящиеся в группе Гости, не могут оставлять комментарии в данной новости.

        ↓ Меню




        ↓ Опрос

        Вы добавили сайт в закладки?
        Да
        Нет


        Top 10 за месяц (Мультфильмы)