.
Авторизация | Регистрация
Хочешь лучшие торренты? Добавь свой email!
Добавить

Торрент скачать бесплатно

» » Гоу-боты / Go-Bots (2003) WEBRip [H.264] (серии 1,2 из 4) [VO] торрент скачать бесплатно


    Гоу-боты / Go-Bots (2003) WEBRip [H.264] (серии 1,2 из 4) [VO] торрент скачать бесплатно

    Опубликовал: Админ | Дата: 27-03-2018, 05:00 | .torrent скачали: 0

    Гоу-боты / Go-Bots (2003) WEBRip [H.264] (серии 1,2 из 4) [VO]Производство: SD Entertainment (США)
    Жанр: Минисериал, Рисованная анимация, фантастика
    Режиссер: Виктор Дэль Челе и Джон Грюсд
    Персонажи: Гоу-боты, люди

    Описание

    С самых ранних времен, в городе Ботрополисе, была рождена раса сверхадаптируемых роботов! Каждый год Совет выбирает команду Гоуботов для защиты и службе планете, которая больше всего нуждалась в них. На этот раз эта планета Земля.
    Четыре робота-трансформера оберегают Землю от собственных собратьев, которые готовы наломать у нас дров.

    Релиз от: Трамвай-фильм
    Продолжительность: серия по ~00: 10: 48
    Серии : 1, 2 из 4
    Качество видео: WEBRip
    Перевод: Одноголосый закадровый
    Озвучка/Автор перевода: Трамвай-фильм
    Субтитры: отсутствуют
    Видео: AVC/H.264, 480x360, ~452 kb/s
    Аудио 1: AAC, 2 ch, 128 kb/s (русский)
    Аудио 2: AAC, 2 ch, 96 kb/s (английский)

    Video
    ID : 1
    Format : AVC
    Format/Info : Advanced Video Codec
    Format profile : Baseline@L3
    Format settings, CABAC : No
    Format settings, ReFrames : 1 frame
    Codec ID : V_MPEG4/ISO/AVC
    Duration : 10 min 48 s
    Bit rate : 452 kb/s
    Width : 480 pixels
    Height : 360 pixels
    Display aspect ratio : 4: 3
    Frame rate mode : Constant
    Frame rate : 29.970 (30000/1001) FPS
    Color space : YUV
    Chroma subsampling : 4: 2: 0
    Bit depth : 8 bits
    Scan type : Progressive
    Bits/(Pixel*Frame) : 0.087
    Stream size : 34.9 MiB (67%)
    Default : Yes
    Forced : No
    Audio #1
    ID : 2
    Format : AAC
    Format/Info : Advanced Audio Codec
    Format profile : LC
    Codec ID : A_AAC
    Duration : 10 min 48 s
    Bit rate : 128 kb/s
    Channel(s) : 2 channels
    Channel positions : Front: L R
    Sampling rate : 44.1 kHz
    Frame rate : 43.066 FPS (1024 spf)
    Compression mode : Lossy
    Stream size : 9.91 MiB (19%)
    Language : Russian
    Default : Yes
    Forced : No
    Audio #2
    ID : 3
    Format : AAC
    Format/Info : Advanced Audio Codec
    Format profile : LC
    Codec ID : A_AAC
    Duration : 10 min 48 s
    Bit rate : 96.0 kb/s
    Channel(s) : 2 channels
    Channel positions : Front: L R
    Sampling rate : 44.1 kHz
    Frame rate : 43.066 FPS (1024 spf)
    Compression mode : Lossy
    Stream size : 7.42 MiB (14%)
    Language : English
    Default : No
    Forced : No


    Онлайн видео Гоу-боты



    Гоу-боты/Go-Bots (2003) WEBRip [H.264] (серии 1,2 из 4) [VO]
    Рейтинг →
     (голосов: 1, оценка 4/5, голосовать можно 1 раз )

    Другие торренты по теме:



      Комментарии (0):

      Информация

      Информация

        Посетители, находящиеся в группе Гости, не могут оставлять комментарии в данной новости.

        ↓ Меню




        ↓ Опрос

        Вы добавили сайт в закладки?
        Да
        Нет


        Top 10 за месяц (Мультфильмы)