.
Авторизация | Регистрация
Хочешь лучшие торренты? Добавь свой email!
Добавить

Торрент скачать бесплатно

» » Путеводная звезда / The Star (2017) BDRip [H.264 / 1080p-LQ] торрент скачать бесплатно


    Путеводная звезда / The Star (2017) BDRip [H.264 / 1080p-LQ] торрент скачать бесплатно

    Опубликовал: Админ | Дата: 27-03-2018, 05:00 | .torrent скачали: 0

    Путеводная звезда / The Star (2017) BDRip [H.264 / 1080p-LQ]Производство: США/Affirm Films, Columbia Pictures, Franklin Entertainment
    Жанр: Мультфильм, Приключения, Комедия, Семейный, Фэнтези
    Режиссер: Тимоти Рекарт
    Продюсер: Девон Франклин, Уоррен Франклин, Брайан Хенсон

    Актеры
    Стивен Ян, Кигэн-Майкл Ки, Эйди Брайант, Джина Родригез, Закари Левай, Кристофер Пламмер, Винг Реймз, Габриэль Иглесиас, Келли Кларксон, Энтони Андерсон

    Описание

    Маленький отважный ослик по имени Бо работает на мельнице, мечтая вырваться на свободу и повидать мир. И в один прекрасный день его желание исполняется! Бо видит в небе необычайно яркую звезду и решает отправиться по пути, который она указывает. Его ждут удивительные приключения и встреча с новыми друзьями, среди которых найдется милая овечка, голубь-шутник и даже троица верблюдов. Разношерстной компании путешественников предстоит стать невольными участниками и свидетелями самого волшебного и чудесного события — Рождества.

    Возраст: 6+ (зрителям, достигшим 6 лет)
    Рейтинг MPAA: PG (рекомендуется присутствие родителей)
    Дата мировой премьеры: 15 ноября 2017
    Релиз от: Heisenberg | NNMClub
    Продолжительность: 01: 26: 06
    Качество: BDRip 1080p
    Перевод: Дублированный (Лицензия BD CEE)
    Субтитры: Русские (forced, full), Английские (full, SDH, SDH Colored)
    Видео: H.264/AVC, 1920x1036, (1.85: 1), 5980 kbps, 23.976 fps
    Аудио: AC3, 6 ch, 640 kbps - Русский
    Аудио: AC3, 6 ch, 640 kbps - Английский
    General
    Unique ID : 164348337970612267062629447898671429845 (0x7BA456AA9BEB1282481F647B540538D5)
    Complete name : S: The.Star.2017.BDRip.1080p.NNMClub.mkv
    Format : Matroska
    Format version : Version 4/Version 2
    File size : 4.37 GiB
    Duration : 1 h 26 min
    Overall bit rate : 7 267 kb/s
    Movie name : The Star (2017) | NNMClub
    Encoded date : UTC 2018-03-26 04: 37: 30
    Writing application : mkvmerge v21.0.0 (\'Tardigrades Will Inherit The Earth\') 64-bit
    Writing library : libebml v1.3.5 + libmatroska v1.4.8
    Cover : Yes
    Attachments : Cover.jpg/x264.log
    Video
    ID : 1
    Format : AVC
    Format/Info : Advanced Video Codec
    Format profile : High@L4.1
    Format settings : CABAC/4 Ref Frames
    Format settings, CABAC : Yes
    Format settings, ReFrames : 4 frames
    Codec ID : V_MPEG4/ISO/AVC
    Duration : 1 h 26 min
    Bit rate : 5 980 kb/s
    Width : 1 920 pixels
    Height : 1 036 pixels
    Display aspect ratio : 1.85: 1
    Frame rate mode : Constant
    Frame rate : 23.976 (24000/1001) FPS
    Color space : YUV
    Chroma subsampling : 4: 2: 0
    Bit depth : 8 bits
    Scan type : Progressive
    Bits/(Pixel*Frame) : 0.125
    Stream size : 3.60 GiB (82%)
    Writing library : x264 core 155 r2901 7d0ff22
    Encoding settings : cabac=1/ref=4/deblock=1: -2: -2/analyse=0x3: 0x133/me=umh/subme=10/psy=1/psy_rd=1.00: 0.00/mixed_ref=1/me_range=32/chroma_me=1/trellis=2/8x8dct=1/cqm=0/deadzone=21, 11/fast_pskip=0/chroma_qp_offset=-2/threads=6/lookahead_threads=1/sliced_threads=0/nr=0/decimate=1/interlaced=0/bluray_compat=0/constrained_intra=0/bframes=13/b_pyramid=2/b_adapt=2/b_bias=0/direct=3/weightb=1/open_gop=0/weightp=2/keyint=240/keyint_min=23/scenecut=40/intra_refresh=0/rc_lookahead=50/rc=2pass/mbtree=0/bitrate=5980/ratetol=1.0/qcomp=0.60/qpmin=0/qpmax=69/qpstep=4/cplxblur=20.0/qblur=0.5/vbv_maxrate=50000/vbv_bufsize=62500/nal_hrd=none/filler=0/ip_ratio=1.40/pb_ratio=1.30/aq=1: 1.00
    Language : English
    Default : Yes
    Forced : No
    Audio #1
    ID : 2
    Format : AC-3
    Format/Info : Audio Coding 3
    Codec ID : A_AC3
    Duration : 1 h 26 min
    Bit rate mode : Constant
    Bit rate : 640 kb/s
    Channel(s) : 6 channels
    Channel positions : Front: L C R, Side: L R, LFE
    Sampling rate : 48.0 kHz
    Frame rate : 31.250 FPS (1536 SPF)
    Bit depth : 16 bits
    Compression mode : Lossy
    Stream size : 394 MiB (9%)
    Title : Dub | Blu-ray CEE
    Language : Russian
    Service kind : Complete Main
    Default : Yes
    Forced : No
    Audio #2
    ID : 3
    Format : AC-3
    Format/Info : Audio Coding 3
    Codec ID : A_AC3
    Duration : 1 h 26 min
    Bit rate mode : Constant
    Bit rate : 640 kb/s
    Channel(s) : 6 channels
    Channel positions : Front: L C R, Side: L R, LFE
    Sampling rate : 48.0 kHz
    Frame rate : 31.250 FPS (1536 SPF)
    Bit depth : 16 bits
    Compression mode : Lossy
    Stream size : 394 MiB (9%)
    Title : Original
    Language : English
    Service kind : Complete Main
    Default : No
    Forced : No
    Text #1
    ID : 4
    Format : UTF-8
    Codec ID : S_TEXT/UTF8
    Codec ID/Info : UTF-8 Plain Text
    Duration : 2 s 585 ms
    Bit rate : 229 b/s
    Count of elements : 1
    Stream size : 74.0 Bytes (0%)
    Title : Forced
    Language : Russian
    Default : Yes
    Forced : No
    Text #2
    ID : 5
    Format : UTF-8
    Codec ID : S_TEXT/UTF8
    Codec ID/Info : UTF-8 Plain Text
    Duration : 1 h 24 min
    Bit rate : 96 b/s
    Count of elements : 1288
    Stream size : 60.1 KiB (0%)
    Title : Full
    Language : Russian
    Default : No
    Forced : No
    Text #3
    ID : 6
    Format : UTF-8
    Codec ID : S_TEXT/UTF8
    Codec ID/Info : UTF-8 Plain Text
    Duration : 1 h 23 min
    Bit rate : 70 b/s
    Count of elements : 1425
    Stream size : 43.3 KiB (0%)
    Title : Full
    Language : English
    Default : No
    Forced : No
    Text #4
    ID : 7
    Format : UTF-8
    Codec ID : S_TEXT/UTF8
    Codec ID/Info : UTF-8 Plain Text
    Duration : 1 h 23 min
    Bit rate : 77 b/s
    Count of elements : 1638
    Stream size : 47.5 KiB (0%)
    Title : SDH
    Language : English
    Default : No
    Forced : No
    Text #5
    ID : 8
    Format : UTF-8
    Codec ID : S_TEXT/UTF8
    Codec ID/Info : UTF-8 Plain Text
    Duration : 1 h 23 min
    Bit rate : 152 b/s
    Count of elements : 1638
    Stream size : 93.5 KiB (0%)
    Title : SDH-Colored
    Language : English
    Default : No
    Forced : No
    Menu
    00: 00: 00.000 : en: 00: 00: 00.000
    00: 04: 20.385 : en: 00: 04: 20.385
    00: 08: 07.112 : en: 00: 08: 07.112
    00: 13: 11.290 : en: 00: 13: 11.290
    00: 18: 07.753 : en: 00: 18: 07.753
    00: 21: 29.246 : en: 00: 21: 29.246
    00: 25: 59.224 : en: 00: 25: 59.224
    00: 30: 26.825 : en: 00: 30: 26.825
    00: 34: 41.997 : en: 00: 34: 41.997
    00: 39: 09.722 : en: 00: 39: 09.722
    00: 47: 09.910 : en: 00: 47: 09.910
    00: 52: 29.772 : en: 00: 52: 29.772
    00: 57: 39.414 : en: 00: 57: 39.414
    01: 04: 37.874 : en: 01: 04: 37.874
    01: 09: 35.171 : en: 01: 09: 35.171
    01: 13: 40.875 : en: 01: 13: 40.875

    x264 info: frame I: 1062 Avg QP: 14.12 size: 268416
    x264 info: frame P: 33797 Avg QP: 16.51 size: 61021
    x264 info: frame B: 89005 Avg QP: 19.80 size: 17044
    x264 info: consecutive B-frames: 2.6% 6.8% 5.7% 73.8% 4.1% 3.8% 0.8% 1.4% 0.1% 0.1% 0.0% 0.4% 0.0% 0.2%
    x264 info: mb I I16..4: 2.8% 84.9% 12.3%
    x264 info: mb P I16..4: 1.3% 12.0% 1.4% P16..4: 33.5% 15.6% 12.5% 0.4% 0.1% skip: 23.1%
    x264 info: mb B I16..4: 0.1% 1.0% 0.1% B16..8: 31.3% 7.8% 2.0% direct: 3.7% skip: 54.0% L0: 39.2% L1: 47.6% BI: 13.2%
    x264 info: 8x8 transform intra: 81.8% inter: 62.7%
    x264 info: direct mvs spatial: 99.2% temporal: 0.8%
    x264 info: coded y, uvDC, uvAC intra: 82.1% 77.8% 48.3% inter: 15.6% 11.4% 2.3%
    x264 info: i16 v, h, dc, p: 16% 16% 5% 63%
    x264 info: i8 v, h, dc, ddl, ddr, vr, hd, vl, hu: 12% 13% 8% 8% 11% 11% 13% 11% 13%
    x264 info: i4 v, h, dc, ddl, ddr, vr, hd, vl, hu: 11% 10% 4% 9% 16% 14% 14% 10% 12%
    x264 info: i8c dc, h, v, p: 37% 26% 19% 17%
    x264 info: Weighted P-Frames: Y: 2.1% UV: 1.4%
    x264 info: ref P L0: 66.8% 12.3% 14.2% 6.4% 0.3% 0.0%
    x264 info: ref B L0: 91.3% 7.2% 1.5%
    x264 info: ref B L1: 96.1% 3.9%
    x264 info: kb/s: 5984.10

    Скриншоты для ознакомления



    Релизы мультфильма Путеводная звезда/The Star на NNM Club
    Время раздачи: 24/7 до первых 10 скачавших


    Онлайн видео Путеводная звезда



    Путеводная звезда/The Star (2017) BDRip [H.264/1080p-LQ]
    Рейтинг →
     (голосов: 1, оценка 3/5, голосовать можно 1 раз )

    Другие торренты по теме:

  • Путеводная звезда / The Star (2017) BDRip [H.264 / 1080p-LQ] [EN / EN Sub]
  • Путеводная звезда / The Star (2017) BDRip
  • Путеводная звезда / The Star (2017) BDRemux [H.264 / 1080p]
  • Путеводная звезда / The Star (2017) Blu-ray [H.264 / 1080p]


    • Комментарии (0):

      Информация

      Информация

        Посетители, находящиеся в группе Гости, не могут оставлять комментарии в данной новости.

        ↓ Меню




        ↓ Опрос

        Вы добавили сайт в закладки?
        Да
        Нет


        Top 10 за месяц (Мультфильмы)