.
Авторизация | Регистрация
Хочешь лучшие торренты? Добавь свой email!
Добавить

Торрент скачать бесплатно

» » Большой собачий побег / Ozzy (2016) BDRip [H.264 / 1080p] торрент скачать бесплатно


    Большой собачий побег / Ozzy (2016) BDRip [H.264 / 1080p] торрент скачать бесплатно

    Опубликовал: Админ | Дата: 27-03-2018, 05:00 | .torrent скачали: 0

    Большой собачий побег / Ozzy (2016) BDRip [H.264 / 1080p]Производство: Канада, Испания
    Жанр: мультфильм, комедия, приключения, семейный
    Режиссер: Альберто Родригез, Начо Ла Каза

    Описание

    Жизнь беспечного бигля Оззи переворачивается с лап на голову, когда, отправляясь в отпуск, семья Мартинов отдает его в элитный спа-отель для собак. Но хозяева не могли и представить, что это всего лишь ловушка, а их любимец окажется в настоящей собачьей тюрьме. Чтобы прорваться через суперсистему охраны и злющих сторожевых псов, Оззи вместе с такими же бедолагами, как он сам, должен будет спланировать самый хитроумный и дерзкий побег в истории.

    Возраст: 0+ (для любой зрительской аудитории)
    Рейтинг MPAA: G (нет возрастных ограничений)
    Продолжительность: 01: 30: 44
    Качество видео: BDRip
    Исходник: Blu-ray
    Перевод: Дублированный (Лицензия BD RUS)
    Субтитры: отсутствуют
    Видео: AVC/H.264, 1920x1080, ~6080 Кбит/сек
    Аудио: AC3, 6 ch, 384 Кбит/сек

    Общее
    Уникальный идентификатор : 306178308260199825352737824908529424318 (0xE657CC169C61D31EEF30B805BD74D7BE)
    Полное имя : D: FilmsOZZYOzzy.2016.1080p.BDRip.Rus.mkv
    Формат : Matroska
    Версия формата : Version 2
    Размер файла : 4, 09 Гбайт
    Продолжительность : 1 ч. 30 м.
    Режим общего битрейта : Переменный
    Общий поток : 6461 Кбит/сек
    Дата кодирования : UTC 2018-03-25 09: 35: 23
    Программа кодирования : mkvmerge v21.0.0 (\'Tardigrades Will Inherit The Earth\') 64-bit
    Библиотека кодирования : libebml v1.3.5 + libmatroska v1.4.8
    Видео
    Идентификатор : 1
    Формат : AVC
    Формат/Информация : Advanced Video Codec
    Профиль формата : High@L4.1
    Настройки формата : CABAC/3 Ref Frames
    Параметр CABAC формата : Да
    Параметр RefFrames формата : 3 кадра
    Идентификатор кодека : V_MPEG4/ISO/AVC
    Продолжительность : 1 ч. 30 м.
    Вид битрейта : Переменный
    Битрейт : 6080 Кбит/сек
    Максимальный битрейт : 14, 0 Мбит/сек
    Ширина : 1920 пикселей
    Высота : 1080 пикселей
    Соотношение сторон : 16: 9
    Режим частоты кадров : Постоянный
    Частота кадров : 24, 000 кадра/сек
    Цветовое пространство : YUV
    Субдискретизация насыщенности : 4: 2: 0
    Битовая глубина : 8 бит
    Тип развёртки : Прогрессивная
    Бит/(Пиксели*Кадры) : 0.122
    Размер потока : 3, 85 Гбайт (94%)
    Библиотека кодирования : x264 core 155 r2901 7d0ff22
    Настройки программы : cabac=1/ref=3/deblock=1: 0: 0/analyse=0x3: 0x133/me=hex/subme=7/psy=1/psy_rd=1.00: 0.00/mixed_ref=1/me_range=16/chroma_me=1/trellis=1/8x8dct=1/cqm=0/deadzone=21, 11/fast_pskip=1/chroma_qp_offset=-2/threads=6/lookahead_threads=1/sliced_threads=0/slices=4/nr=0/decimate=1/interlaced=0/bluray_compat=1/constrained_intra=0/bframes=3/b_pyramid=1/b_adapt=1/b_bias=0/direct=1/weightb=1/open_gop=1/weightp=1/keyint=240/keyint_min=1/scenecut=40/intra_refresh=0/rc_lookahead=40/rc=2pass/mbtree=1/bitrate=6080/ratetol=2.0/qcomp=0.60/qpmin=0/qpmax=69/qpstep=4/cplxblur=20.0/qblur=0.5/vbv_maxrate=14000/vbv_bufsize=14000/nal_hrd=vbr/filler=0/ip_ratio=1.40/aq=1: 1.00
    Default : Да
    Forced : Нет
    Цветовой диапазон : Limited
    Основные цвета : BT.709
    Характеристики трансфера : BT.709
    Коэффициенты матрицы : BT.709
    Аудио
    Идентификатор : 2
    Формат : AC-3
    Формат/Информация : Audio Coding 3
    Идентификатор кодека : A_AC3
    Продолжительность : 1 ч. 30 м.
    Вид битрейта : Постоянный
    Битрейт : 384 Кбит/сек
    Каналы : 6 каналов
    Расположение каналов : Front: L C R, Side: L R, LFE
    Частота : 48, 0 КГц
    Частота кадров : 31, 250 кадров/сек (1536 SPF)
    Битовая глубина : 16 бит
    Метод сжатия : С потерями
    Размер потока : 249 Мбайт (6%)
    Язык : Russian
    ServiceKind/String : Complete Main
    Default : Да
    Forced : Нет
    Меню
    00: 00: 00.000 : en: 00: 00: 00.000
    00: 00: 40.667 : en: 00: 00: 40.667
    00: 09: 41.125 : en: 00: 09: 41.125
    00: 22: 08.000 : en: 00: 22: 08.000
    00: 32: 50.458 : en: 00: 32: 50.458
    00: 44: 08.542 : en: 00: 44: 08.542
    00: 58: 01.792 : en: 00: 58: 01.792
    01: 08: 12.000 : en: 01: 08: 12.000
    01: 19: 27.042 : en: 01: 19: 27.042

    Скриншоты для ознакомления




    Все одноименные релизы в Клубе
    Время раздачи: 18: 00 - 00: 00


    Онлайн видео Большой собачий побег



    Большой собачий побег/Ozzy (2016) BDRip [H.264/1080p]
    Рейтинг →
     (голосов: 1, оценка 4/5, голосовать можно 1 раз )

    Другие торренты по теме:

  • Большой собачий побег / Ozzy (2016) WEB-DL [H.264 / 720p-LQ]
  • Большой собачий побег / Ozzy (2016) WEB-DLRip
  • Большой собачий побег / Ozzy (2016) WEB-DL [H.264 / 1080p]
  • Большой собачий побег / Ozzy (2016) BDRip [H.264 / 1080p]
  • Большой собачий побег / Ozzy (2016) Blu-ray [H.264 / 1080p]
  • Большой собачий побег / Ozzy (2016) BDRip [H.264 / 720p]


    • Комментарии (0):

      Информация

      Информация

        Посетители, находящиеся в группе Гости, не могут оставлять комментарии в данной новости.

        ↓ Меню




        ↓ Опрос

        Вы добавили сайт в закладки?
        Да
        Нет


        Top 10 за месяц (Мультфильмы)