.
Авторизация | Регистрация
Хочешь лучшие торренты? Добавь свой email!
Добавить

Торрент скачать бесплатно

» » Красно солнышко (1972) TVRip торрент скачать бесплатно


    Красно солнышко (1972) TVRip торрент скачать бесплатно

    Опубликовал: Админ | Дата: 25-03-2018, 05:00 | .torrent скачали: 0

    Красно солнышко (1972) TVRipПроизводство: СССР
    Жанр: Приключения
    Режиссер: Василе Паскару

    Актеры
    Игорь Бочкин, Майя Булгакова, Владимир Горелов, Муза Крепкогорская, Антонина Максимова, Леонид Неведомский, Сергей Реусенко, Игорь Сахаров, Ия Саввина, Георгий Юматов

    Описание

    Пионер Веня разыскал могилу пропавшего без вести в годы войны земляка, помог разоблачить военного преступника и, узнав много интересного о боевом прошлом своих односельчан, по-новому оценил тех, кто раньше казался ему самым обыкновенным.

    Возраст: 12+ (зрителям, достигшим 12 лет)
    Релиз от: Aлexandr
    Продолжительность: 01: 30: 25
    Качество видео: TVRip
    Субтитры: Отсутствуют
    Видео: Xvid, 640x480 (4: 3), ~2020 Kbps
    Аудио: MP3, 2 ch, 128 Kbps

    Общее
    Полное имя : D: Красно солнышко (1972).by.Алехаndr.avi
    Формат : AVI
    Формат/Информация : Audio Video Interleave
    Профиль формата : OpenDML
    Размер файла : 1, 37 Гбайт
    Продолжительность : 1 ч. 30 м.
    Общий поток : 2163 Кбит/сек
    Программа кодирования : Lavf58.10.100
    Видео
    Идентификатор : 0
    Формат : MPEG-4 Visual
    Профиль формата : Advanced Simple@L5
    Параметр BVOP формата : Нет
    Параметр QPel формата : Нет
    Параметр GMC формата : Без точки перехода
    Параметр матрицы формата : Default (H.263)
    Идентификатор кодека : XVID
    Идентификатор кодека/Подсказка : XviD
    Продолжительность : 1 ч. 30 м.
    Битрейт : 2020 Кбит/сек
    Ширина : 640 пикселей
    Высота : 480 пикселей
    Соотношение сторон : 4: 3
    Частота кадров : 25, 000 кадров/сек
    Цветовое пространство : YUV
    Субдискретизация насыщенности : 4: 2: 0
    Битовая глубина : 8 бит
    Тип развёртки : Прогрессивная
    Метод сжатия : С потерями
    Бит/(Пиксели*Кадры) : 0.263
    Размер потока : 1, 28 Гбайт (93%)
    Библиотека кодирования : XviD 67
    Аудио
    Идентификатор : 1
    Формат : MPEG Audio
    Версия формата : Version 1
    Профиль формата : Layer 3
    Идентификатор кодека : 55
    Идентификатор кодека/Подсказка : MP3
    Продолжительность : 1 ч. 30 м.
    Вид битрейта : Постоянный
    Битрейт : 128 Кбит/сек
    Каналы : 2 канала
    Частота : 48, 0 КГц
    Метод сжатия : С потерями
    Размер потока : 82, 8 Мбайт (6%)
    Выравнивание : Соединение по промежуткам
    Продолжительность промежутка : 24 мс. (0, 60 видеокадр)
    Время предзагрузки промежутка : 24 мс.

    Скриншоты для ознакомления



    Все одноименные релизы в Клубе
    Время раздачи: 24/7 (круглосуточно) (до появления первых 3-5 скачавших)


    Онлайн видео Я.И. Перельман



    Красно солнышко (1972) TVRip
    Рейтинг →
     (голосов: 1, оценка 3/5, голосовать можно 1 раз )

    Другие торренты по теме:

  • Александр Авраменко, Виктория Гетто | Красно Солнышко (2016) [FB2]


    • Комментарии (0):

      Информация

      Информация

        Посетители, находящиеся в группе Гости, не могут оставлять комментарии в данной новости.

        ↓ Меню




        ↓ Опрос

        Вы добавили сайт в закладки?
        Да
        Нет


        Top 10 за месяц (Мультфильмы)