.
Авторизация | Регистрация
Хочешь лучшие торренты? Добавь свой email!
Добавить

Торрент скачать бесплатно

» » Дикая планета / La planete sauvage (1973) DVD5 [Custom] торрент скачать бесплатно


    Дикая планета / La planete sauvage (1973) DVD5 [Custom] торрент скачать бесплатно

    Опубликовал: Админ | Дата: 24-03-2018, 05:00 | .torrent скачали: 1

    Дикая планета / La planete sauvage (1973) DVD5 [Custom]Производство: Франция, Чехословакия/Argos Films, Ceskoslovensky Filmexport
    Жанр: Рисованная анимация, фантастика
    Режиссер: Рене Лалу

    Актеры
    Дженнифер Дрэйк, Эрик Боген, Жан Топар, Жан Вальмонт, Сильви Ленуар, Мишель Шаан, Ив Барсак, Юбер де Лаппаран, Жерар Эрнандес, Клод Джозеф

    Описание

    Где-то в глубинах космоса затерялась странная планета Игам. Правят ею драги — гигантские голубые существа с красными глазами, обладающие сверхвысоким уровнем развития. Кроме них на Игаме живут омы — розовотелые миниатюрные гуманоиды, домашние животные драгов. Постепенно на Игаме разворачивается борьба угнетенных омов против своих хозяев-гигантов за теплое место под тусклым солнцем, за жизнь и свободу. В итоге драги решают полностью уничтожить омов...

    Возраст: 16+ (зрителям достигшим 16 лет)
    Рейтинг MPAA: PG (рекомендуется присутствие родителей)
    Релиз от: maroder1 (NNM-CLUB)
    Продолжительность: 01: 08: 46
    Качество видео: DVD5
    Перевод: Многоголосый закадровый
    Субтитры: Отсутствуют
    Дополнительные материалы: Нет
    Видео: MPEG-2, PAL 720x576@1024x576 (16: 9), ~4326 Kbps, 25.00 fps
    Аудио#1: AC3, 6 ch, 448 Kbps | Русский
    Аудио#2: AC3, 6 ch, 448 Kbps | Французский
    Аудио#3: AC3, 2 ch, 192 Kbps | Итальянский
    Title:
    Size: 2.70 Gb ( 2 827 014 KBytes ) - DVD-5
    Enabled regions: 1, 2, 3, 4, 5, 6, 7, 8
    VTS_01 :
    Play Length: 01: 08: 46
    Video: PAL 16: 9 (720x576) VBR, Auto Letterboxed
    Audio:
    Russian (Dolby AC3, 6 ch)
    Francais (Dolby AC3, 6 ch)
    Italiano (Dolby AC3, 2 ch)
    Код: выделить все

    Общее
    Полное имя : F:[NNMClub.to]_La.Planete.Sauvage.1973.DVD5_maroder1VIDEO_TSVTS_01_1.VOB
    Формат : MPEG-PS
    Размер файла : 1024 Мбайт
    Продолжительность : 25 м.
    Режим общего битрейта : Переменный
    Общий поток : 5524 Кбит/сек
    Видео
    Идентификатор : 224 (0xE0)
    Формат : MPEG Video
    Версия формата : Version 2
    Профиль формата : Main@Main
    Параметр BVOP формата : Да
    Параметр матрицы формата : Выборочная
    Параметр GOP формата : M=3, N=12
    Продолжительность : 25 м.
    Вид битрейта : Переменный
    Битрейт : 4326 Кбит/сек
    Максимальный битрейт : 8000 Кбит/сек
    Ширина : 720 пикселей
    Высота : 576 пикселей
    Соотношение сторон : 16:9
    Частота кадров : 25, 000 кадров/сек
    Стандарт вещания : PAL
    Цветовое пространство : YUV
    Субдискретизация насыщенности : 4:2:0
    Битовая глубина : 8 бит
    Тип развёртки : Чересстрочная
    Порядок развёртки : Верхнее поле первое
    Метод сжатия : С потерями
    Бит/(Пиксели*Кадры) : 0.417
    Размер потока : 802 Мбайт (78%)
    Аудио #1
    Идентификатор : 189 (0xBD)-128 (0x80)
    Формат : AC-3
    Формат/Информация : Audio Coding 3
    Расширение режима : CM (complete main)
    Параметр Endianness формата : Big
    Режим смешивания : DVD-Video
    Продолжительность : 25 м.
    Вид битрейта : Постоянный
    Битрейт : 448 Кбит/сек
    Каналы : 6 каналов
    Расположение каналов : Front: L C R, Side: L R, LFE
    Частота : 48, 0 КГц
    Битовая глубина : 16 бит
    Метод сжатия : С потерями
    Задержка видео : -80 мс.
    Размер потока : 83, 0 Мбайт (8%)
    Аудио #2
    Идентификатор : 189 (0xBD)-129 (0x81)
    Формат : AC-3
    Формат/Информация : Audio Coding 3
    Расширение режима : CM (complete main)
    Параметр Endianness формата : Big
    Режим смешивания : DVD-Video
    Продолжительность : 25 м.
    Вид битрейта : Постоянный
    Битрейт : 448 Кбит/сек
    Каналы : 6 каналов
    Расположение каналов : Front: L C R, Side: L R, LFE
    Частота : 48, 0 КГц
    Битовая глубина : 16 бит
    Метод сжатия : С потерями
    Задержка видео : -80 мс.
    Размер потока : 83, 0 Мбайт (8%)
    Аудио #3
    Идентификатор : 189 (0xBD)-130 (0x82)
    Формат : AC-3
    Формат/Информация : Audio Coding 3
    Расширение режима : CM (complete main)
    Параметр Endianness формата : Big
    Режим смешивания : DVD-Video
    Продолжительность : 25 м.
    Вид битрейта : Постоянный
    Битрейт : 192 Кбит/сек
    Каналы : 2 канала
    Расположение каналов : Front: L R
    Частота : 48, 0 КГц
    Битовая глубина : 16 бит
    Метод сжатия : С потерями
    Задержка видео : -80 мс.
    Размер потока : 35, 6 Мбайт (3%)
    Меню


    Онлайн видео Дикая планета



    Дикая планета/La planete sauvage (1973) DVD5 [Custom]
    Рейтинг →
     (голосов: 1, оценка 4/5, голосовать можно 1 раз )

    Другие торренты по теме:

  • Дикая планета. Коала: семейное досье / Planet Wild. Koala: family confidential (2007) SATRip


    • Комментарии (0):

      Информация

      Информация

        Посетители, находящиеся в группе Гости, не могут оставлять комментарии в данной новости.

        ↓ Меню




        ↓ Опрос

        Вы добавили сайт в закладки?
        Да
        Нет


        Top 10 за месяц (Мультфильмы)