.
Авторизация | Регистрация
Хочешь лучшие торренты? Добавь свой email!
Добавить

Торрент скачать бесплатно

» » Куда вел след динозавра (1987) TVRip (серии 1-2 из 2) торрент скачать бесплатно


    Куда вел след динозавра (1987) TVRip (серии 1-2 из 2) торрент скачать бесплатно

    Опубликовал: Админ | Дата: 24-03-2018, 05:00 | .torrent скачали: 1

    Куда вел след динозавра (1987) TVRip (серии 1-2 из 2)Производство: СССР/Таджикфильм
    Жанр: Семейный
    Режиссер: Маргарита Касымова

    Актеры
    Хабибулло Абдураззаков, Ирбек Алиев, Хамза Бердыев, Нижина Мирзаянц, Приит Рохумаа, Бахтияр Закиров

    Описание

    Трое мальчиков и девочка отправились в горы на поиски динозавра. Немало страшного встретилось на их пути. В конечном счете загадочные следы привели их к взрослым бездельникам, надеющимся отыскать клад на дне озера.

    Релиз от: Aлexandr
    Продолжительность: 01: 03: 29 + 01: 03: 14
    Качество видео: TVRip
    Субтитры: Отсутствуют
    Видео: Xvid, 640x480 (4: 3), ~1500 Kbps
    Аудио: MP3, 2 ch, 128 Kbps

    Общее
    Полное имя : D: Куда вел след динозавра (1987).by.АлехаndrСерия 1.by.Алехаndr.avi
    Формат : AVI
    Формат/Информация : Audio Video Interleave
    Размер файла : 744 Мбайт
    Продолжительность : 1 ч. 3 м.
    Общий поток : 1639 Кбит/сек
    Программа кодирования : Lavf58.10.100
    Видео
    Идентификатор : 0
    Формат : MPEG-4 Visual
    Профиль формата : Advanced Simple@L5
    Параметр BVOP формата : Нет
    Параметр QPel формата : Нет
    Параметр GMC формата : Без точки перехода
    Параметр матрицы формата : Default (H.263)
    Идентификатор кодека : XVID
    Идентификатор кодека/Подсказка : XviD
    Продолжительность : 1 ч. 3 м.
    Битрейт : 1498 Кбит/сек
    Ширина : 640 пикселей
    Высота : 480 пикселей
    Соотношение сторон : 4: 3
    Частота кадров : 25, 000 кадров/сек
    Цветовое пространство : YUV
    Субдискретизация насыщенности : 4: 2: 0
    Битовая глубина : 8 бит
    Тип развёртки : Прогрессивная
    Метод сжатия : С потерями
    Бит/(Пиксели*Кадры) : 0.195
    Размер потока : 680 Мбайт (91%)
    Библиотека кодирования : XviD 67
    Аудио
    Идентификатор : 1
    Формат : MPEG Audio
    Версия формата : Version 1
    Профиль формата : Layer 3
    Идентификатор кодека : 55
    Идентификатор кодека/Подсказка : MP3
    Продолжительность : 1 ч. 3 м.
    Вид битрейта : Постоянный
    Битрейт : 128 Кбит/сек
    Каналы : 2 канала
    Частота : 48, 0 КГц
    Метод сжатия : С потерями
    Размер потока : 58, 1 Мбайт (8%)
    Выравнивание : Соединение по промежуткам
    Продолжительность промежутка : 24 мс. (0, 60 видеокадр)
    Время предзагрузки промежутка : 24 мс.
    Общее
    Полное имя : D: Куда вел след динозавра (1987).by.АлехаndrСерия 2.by.Алехаndr.avi
    Формат : AVI
    Формат/Информация : Audio Video Interleave
    Размер файла : 742 Мбайт
    Продолжительность : 1 ч. 3 м.
    Общий поток : 1641 Кбит/сек
    Программа кодирования : Lavf58.10.100
    Видео
    Идентификатор : 0
    Формат : MPEG-4 Visual
    Профиль формата : Advanced Simple@L5
    Параметр BVOP формата : Нет
    Параметр QPel формата : Нет
    Параметр GMC формата : Без точки перехода
    Параметр матрицы формата : Default (H.263)
    Идентификатор кодека : XVID
    Идентификатор кодека/Подсказка : XviD
    Продолжительность : 1 ч. 3 м.
    Битрейт : 1500 Кбит/сек
    Ширина : 640 пикселей
    Высота : 480 пикселей
    Соотношение сторон : 4: 3
    Частота кадров : 25, 000 кадров/сек
    Цветовое пространство : YUV
    Субдискретизация насыщенности : 4: 2: 0
    Битовая глубина : 8 бит
    Тип развёртки : Прогрессивная
    Метод сжатия : С потерями
    Бит/(Пиксели*Кадры) : 0.195
    Размер потока : 678 Мбайт (91%)
    Библиотека кодирования : XviD 67
    Аудио
    Идентификатор : 1
    Формат : MPEG Audio
    Версия формата : Version 1
    Профиль формата : Layer 3
    Идентификатор кодека : 55
    Идентификатор кодека/Подсказка : MP3
    Продолжительность : 1 ч. 3 м.
    Вид битрейта : Постоянный
    Битрейт : 128 Кбит/сек
    Каналы : 2 канала
    Частота : 48, 0 КГц
    Метод сжатия : С потерями
    Размер потока : 57, 9 Мбайт (8%)
    Выравнивание : Соединение по промежуткам
    Продолжительность промежутка : 24 мс. (0, 60 видеокадр)
    Время предзагрузки промежутка : 24 мс.

    Скриншоты для ознакомления



    Все одноименные релизы в Клубе
    Время раздачи: 24/7 (круглосуточно) (до появления первых 3-5 скачавших)


    Онлайн видео Куда вел след динозавра (1987) TVRip (серии 1



    Куда вел след динозавра (1987) TVRip (серии 1-2 из 2)
    Рейтинг →
     (голосов: 1, оценка 3/5, голосовать можно 1 раз )

    Другие торренты по теме:

  • Анатолий Сидоров | Доверяете ли Вы Суду Как и куда пожаловаться на судью (2014) [PDF]
  • Куда уходит любовь (2014) HDTV [H.264 / 1080i-LQ]
  • Планета обезьян. Куда исчезают умные дети (Планета мавп. Куди зникають розумні діти) (2014) [MP4|1280x720] <HDRip H.264> скачать через торрент бесплатно
  • Нераскрытые тайны. Куда пропали домашние насекомые (2014) SATRip скачать через торрент бесплатно
  • Куда приводят мечты / What Dreams May Come (1998) BDRip [720p] [hand made 60fps]
  • Куда же делась седьмая рота / Now Where Did the Seventh Company Get to / Mais ou est donc passee la 7eme compagnie (1973) BDRip [720p] скачать через торрент бесплатно
  • Москва и окрестности. Куда повести французов в столице (2015) SATRip скачать через торрент бесплатно
  • Куда приводят мечты / What Dreams May Come (1998) BDRip [H.264] скачать через торрент бесплатно


    • Комментарии (0):

      Информация

      Информация

        Посетители, находящиеся в группе Гости, не могут оставлять комментарии в данной новости.

        ↓ Меню




        ↓ Опрос

        Вы добавили сайт в закладки?
        Да
        Нет


        Top 10 за месяц (Мультфильмы)