.
Авторизация | Регистрация
Хочешь лучшие торренты? Добавь свой email!
Добавить

Торрент скачать бесплатно

» » Титан: После гибели земли / Titan A.E. (2000) HDTVRip [H.264 / 720p-LQ] торрент скачать бесплатно


    Титан: После гибели земли / Titan A.E. (2000) HDTVRip [H.264 / 720p-LQ] торрент скачать бесплатно

    Опубликовал: Админ | Дата: 21-03-2018, 05:00 | .torrent скачали: 0

    Титан: После гибели земли / Titan A.E. (2000) HDTVRip [H.264 / 720p-LQ]Производство: США, David Kirschner Productions, Fox Animation Studios, Twentieth Century Fox Film Corporation
    Жанр: Рисованная анимация, Фентези
    Режиссер: Дон Блут, Гари Голдман, Арт Вителло
    Персонажи: Мэтт Дэймон, Билл Пуллман, Джон Легуизамо, Натан Лэйн, Джанин Гарофало, Дрю Бэрримор, Рон Перлман, Алекс Д. Линц, Тоун Лок, Джим Брюэр

    Описание

    В 3028 году Дреджи - агрессивная инопланетная раса уничтожила Землю. Пятнадцать лет спустя - юный Кейл узнает, что он владеет генетически запрограммированной картой на Титан - космический супер-корабль, в котором заключен секрет спасения человечества.
    Кейлу предстоит полное опасностей путешествие через вселенную в составе команды космического корабля Валькирия, сражения со злыми Дреджами, и восстановление Титана - последней надежды всего человечества.

    Продолжительность: 01: 34: 59
    Качество видео: HDTVRip
    Перевод: Профессиональный (полное дублирование) + Профессиональный (многоголосый закадровый) + Авторский (Юрий Живов)
    Субтитры: русские (полные и форсированные (на надписи и речь Дреджей)), английские SRT
    Видео: AVC/H.264, 1280 x 544, ~4124 Кбит/с
    Аудио #1: 48 kHz, AC3 Dolby Digital, 3/2 (L, C, R, l, r) + LFE ch, ~448 Кбит/с Дубляж
    Аудио #2: 48 kHz, AC3 Dolby Digital, 3/2 (L, C, R, l, r) + LFE ch, ~384 Кбит/с Многоголоска №1
    Аудио #3: 48 kHz, AC3 Dolby Digital, 3/2 (L, C, R, l, r) + LFE ch, ~384 Кбит/с Многоголоска №2
    Аудио #4: 48 kHz, AC3 Dolby Digital, 3/2 (L, C, R, l, r) + LFE ch, ~384 Кбит/с Живов
    Аудио #5: 48 kHz, AC3 Dolby Digital, 3/2 (L, C, R, l, r) + LFE ch, ~448 Кбит/с Оригинал
    Код: выделить все

    Общее
    Уникальный идентификатор : 206801563472434833333700944930130867936 (0x9B948848FDE47A76B84948B8D543B6E0)
    Полное имя : Титан После гибели земли.mkv
    Формат : Matroska
    Версия формата : Version 4/Version 2
    Размер файла : 4, 09 Гбайт
    Продолжительность : 1 ч. 34 м.
    Общий поток : 6162 Кбит/сек
    Дата кодирования : UTC 2014-12-18 09:57:00
    Программа кодирования : mkvmerge v7.1.0 (\'Good Love\') 64bit built on Jul 27 2014 13:06:55
    Библиотека кодирования : libebml v1.3.0 + libmatroska v1.4.1
    Видео
    Идентификатор : 1
    Формат : AVC
    Формат/Информация : Advanced Video Codec
    Профиль формата :Main@L3.1
    Настройки формата : 2 Ref Frames
    Параметр CABAC формата : Нет
    Параметр RefFrames формата : 2 кадра
    Параметр GOP формата : N=1
    Идентификатор кодека : V_MPEG4/ISO/AVC
    Продолжительность : 1 ч. 34 м.
    Битрейт : 4124 Кбит/сек
    Ширина : 1280 пикселей
    Высота : 544 пикселя
    Соотношение сторон : 2, 35:1
    Режим частоты кадров : Постоянный
    Частота кадров : 23, 976 (23976/1000) кадра/сек
    Цветовое пространство : YUV
    Субдискретизация насыщенности : 4:2:0
    Битовая глубина : 8 бит
    Тип развёртки : Прогрессивная
    Бит/(Пиксели*Кадры) : 0.247
    Размер потока : 2, 74 Гбайт (67%)
    Язык : English
    Default : Да
    Forced : Нет
    Цветовой диапазон : Limited
    Основные цвета : BT.709
    Характеристики трансфера : BT.709
    Коэффициенты матрицы : BT.709
    Аудио #1
    Идентификатор : 2
    Формат : AC-3
    Формат/Информация : Audio Coding 3
    Идентификатор кодека : A_AC3
    Продолжительность : 1 ч. 34 м.
    Вид битрейта : Постоянный
    Битрейт : 448 Кбит/сек
    Каналы : 6 каналов
    Расположение каналов : Front: L C R, Side: L R, LFE
    Частота : 48, 0 КГц
    Частота кадров : 31, 250 кадров/сек (1536 SPF)
    Битовая глубина : 16 бит
    Метод сжатия : С потерями
    Размер потока : 304 Мбайт (7%)
    Заголовок : Dublyazh
    Язык : Russian
    ServiceKind/String : Complete Main
    Default : Да
    Forced : Нет
    Аудио #2
    Идентификатор : 3
    Формат : AC-3
    Формат/Информация : Audio Coding 3
    Идентификатор кодека : A_AC3
    Продолжительность : 1 ч. 34 м.
    Вид битрейта : Постоянный
    Битрейт : 384 Кбит/сек
    Каналы : 6 каналов
    Расположение каналов : Front: L C R, Side: L R, LFE
    Частота : 48, 0 КГц
    Частота кадров : 31, 250 кадров/сек (1536 SPF)
    Битовая глубина : 16 бит
    Метод сжатия : С потерями
    Размер потока : 261 Мбайт (6%)
    Заголовок : MVO1
    Язык : Russian
    ServiceKind/String : Complete Main
    Default : Нет
    Forced : Нет
    Аудио #3
    Идентификатор : 4
    Формат : AC-3
    Формат/Информация : Audio Coding 3
    Идентификатор кодека : A_AC3
    Продолжительность : 1 ч. 32 м.
    Вид битрейта : Постоянный
    Битрейт : 384 Кбит/сек
    Каналы : 6 каналов
    Расположение каналов : Front: L C R, Side: L R, LFE
    Частота : 48, 0 КГц
    Частота кадров : 31, 250 кадров/сек (1536 SPF)
    Битовая глубина : 16 бит
    Метод сжатия : С потерями
    Размер потока : 253 Мбайт (6%)
    Заголовок : MVO2
    Язык : Russian
    ServiceKind/String : Complete Main
    Default : Нет
    Forced : Нет
    Аудио #4
    Идентификатор : 5
    Формат : AC-3
    Формат/Информация : Audio Coding 3
    Идентификатор кодека : A_AC3
    Продолжительность : 1 ч. 34 м.
    Вид битрейта : Постоянный
    Битрейт : 384 Кбит/сек
    Каналы : 6 каналов
    Расположение каналов : Front: L C R, Side: L R, LFE
    Частота : 48, 0 КГц
    Частота кадров : 31, 250 кадров/сек (1536 SPF)
    Битовая глубина : 16 бит
    Метод сжатия : С потерями
    Размер потока : 261 Мбайт (6%)
    Заголовок : Zhivov
    Язык : Russian
    ServiceKind/String : Complete Main
    Default : Нет
    Forced : Нет
    Аудио #5
    Идентификатор : 6
    Формат : AC-3
    Формат/Информация : Audio Coding 3
    Идентификатор кодека : A_AC3
    Продолжительность : 1 ч. 34 м.
    Вид битрейта : Постоянный
    Битрейт : 448 Кбит/сек
    Каналы : 6 каналов
    Расположение каналов : Front: L C R, Side: L R, LFE
    Частота : 48, 0 КГц
    Частота кадров : 31, 250 кадров/сек (1536 SPF)
    Битовая глубина : 16 бит
    Метод сжатия : С потерями
    Размер потока : 304 Мбайт (7%)
    Заголовок : Original
    Язык : English
    ServiceKind/String : Complete Main
    Default : Нет
    Forced : Нет
    Текст #1
    Идентификатор : 7
    Формат : UTF-8
    Идентификатор кодека : S_TEXT/UTF8
    Идентификатор кодека/Информация : UTF-8 Plain Text
    Продолжительность : 1 ч. 24 м.
    Битрейт : 1 бит/сек
    ElementCount : 19
    Размер потока : 923 байт (0%)
    Заголовок : force
    Язык : Russian
    Default : Нет
    Forced : Нет
    Текст #2
    Идентификатор : 8
    Формат : UTF-8
    Идентификатор кодека : S_TEXT/UTF8
    Идентификатор кодека/Информация : UTF-8 Plain Text
    Продолжительность : 1 ч. 24 м.
    Битрейт : 72 бит/сек
    ElementCount : 789
    Размер потока : 44, 9 Кбайт (0%)
    Язык : Russian
    Default : Нет
    Forced : Нет
    Текст #3
    Идентификатор : 9
    Формат : UTF-8
    Идентификатор кодека : S_TEXT/UTF8
    Идентификатор кодека/Информация : UTF-8 Plain Text
    Продолжительность : 1 ч. 24 м.
    Битрейт : 45 бит/сек
    ElementCount : 777
    Размер потока : 28, 1 Кбайт (0%)
    Язык : English
    Default : Нет
    Forced : Нет
    Меню
    00:00:00.000 : en:Prologue
    00:01:52.000 : en:The Drej Attack
    00:06:37.000 : en:15 Years Later
    00:12:18.000 : en:A Human Recruiter
    00:14:42.000 : en:A Father\'s Legacy
    00:15:56.000 : en:Being Chased
    00:20:53.000 : en:Being Healed
    00:24:33.000 : en:Navigation
    00:26:50.000 : en:Sesharrim
    00:35:57.000 : en:Captured
    00:40:38.000 : en:On A Trade Ship
    00:43:05.000 : en:Breaking Free
    00:52:10.000 : en:Unnatural Allies
    00:56:35.000 : en:On New Bangkok
    00:58:51.000 : en:A Ship
    01:02:32.000 : en:In The Ice Ring
    01:11:43.000 : en:A Message From Dad
    01:15:06.000 : en:Fight For The Ring
    01:22:12.000 : en:Building A Planet
    01:26:42.000 : en:End Titles
    Скриншоты

    релизы фильма на NNM-CLUB

    Время раздачи: По возможности (до 3 скачавших)


    Онлайн видео Титан: После гибели земли



    Титан: После гибели земли/Titan A.E. (2000) HDTVRip [H.264/720p-LQ]
    Рейтинг →
     (голосов: 1, оценка 3/5, голосовать можно 1 раз )

    Другие торренты по теме:

  • Титан / The Titan (2018) WEB-DLRip [MVO] [AD]
  • Титан / The Titan (2018) WEB-DLRip [H.264 / 1080p-LQ] [MVO] [AD]
  • Титан / The Titan (2018) WEB-DL [H.264 / 1080p-LQ] [EN / EN Sub]
  • Титан / The Titan (2018) WEBRip [H.264 / 1080p-LQ] [MVO]
  • Титан / The Titan (2018) WEB-DL [H.264 / 1080p-LQ]
  • Титан / The Titan (2018) WEB-DLRip [H.264] [MVO]
  • Титан / The Titan (2018) BDRip [1080p] ATV
  • Титан / The Titan (2018) BDRip [720p] ATV


    • Комментарии (0):

      Информация

      Информация

        Посетители, находящиеся в группе Гости, не могут оставлять комментарии в данной новости.

        ↓ Меню




        ↓ Опрос

        Вы добавили сайт в закладки?
        Да
        Нет


        Top 10 за месяц (Мультфильмы)