.
Авторизация | Регистрация
Хочешь лучшие торренты? Добавь свой email!
Добавить

Торрент скачать бесплатно

  • support: webmaster@btracker.org
» » Седьмой 2 / Си Джей 7 - 2 / Cheung Gong 7 hou: Oi dei kau / CJ7 - 2 (2010) HDRip [H.264] торрент скачать бесплатно


    Седьмой 2 / Си Джей 7 - 2 / Cheung Gong 7 hou: Oi dei kau / CJ7 - 2 (2010) HDRip [H.264] торрент скачать бесплатно

    Опубликовал: Админ | Дата: 20-03-2018, 05:00 | .torrent скачали: 0

    Седьмой 2 / Си Джей 7 - 2 / Cheung Gong 7 hou: Oi dei kau / CJ7 - 2 (2010) HDRip [H.264]Производство: Гонконг, Китай, China Film Group Corporation, Star Overseas
    Жанр: Рисованная анимация, Комедия, Детский
    Режиссер: То Юэнь

    Описание

    Мультфильм повествует о том, как отец и сын случайно находят инопланетянина по имени Си Джей. Познакомившись друг с другом герои окунаются в водоворот приключений, во время которых Си Джей защищает окружающую среду и спасает землю.

    Возраст: 6+ (зрителям, достигшим 6 лет)
    Рейтинг MPAA: G (нет возрастных ограничений)
    Релиз от: Невьянск
    Продолжительность: 01: 22: 27
    Качество видео: HDRip
    Перевод: Любительский (двухголосый закадровый)
    Субтитры: английские
    Видео: AVC/H.264, 1024х576 (16: 9), 23.976 fps, 1734 kbps
    Аудио#1: AC-3, 48.0 KHz, 2 ch, 192 Kbps, CBR | Любительский двухголосый (AniDub)
    Аудио#2: AC-3, 48.0 KHz, 2 ch, 192 Kbps, CBR | Китайский

    General
    Unique ID : 252416944898176093385446501523569500238 (0xBDE5BC3A53F5227EAEC9BCA63D8BE04E)
    Complete name : C: UsersTantinfecDesktopCJ7 (2010).mkv
    Format : Matroska
    Format version : Version 4/Version 2
    File size : 1.22 GiB
    Duration : 1 h 23 min
    Overall bit rate : 2 107 kb/s
    Encoded date : UTC 2018-03-16 18: 14: 35
    Writing application : mkvmerge v18.0.0 (\'Apricity\') 64-bit
    Writing library : libebml v1.3.5 + libmatroska v1.4.8
    Video
    ID : 1
    Format : AVC
    Format/Info : Advanced Video Codec
    Format profile : High@L4.1
    Format settings : CABAC/3 Ref Frames
    Format settings, CABAC : Yes
    Format settings, ReFrames : 3 frames
    Codec ID : V_MPEG4/ISO/AVC
    Duration : 1 h 22 min
    Bit rate : 1 734 kb/s
    Width : 1 024 pixels
    Height : 576 pixels
    Display aspect ratio : 16: 9
    Frame rate mode : Constant
    Frame rate : 23.976 (24000/1001) FPS
    Color space : YUV
    Chroma subsampling : 4: 2: 0
    Bit depth : 8 bits
    Scan type : Progressive
    Bits/(Pixel*Frame) : 0.123
    Stream size : 1 023 MiB (82%)
    Writing library : x264 core 104 r1713 c276662
    Encoding settings : cabac=1/ref=3/deblock=1: 0: 0/analyse=0x3: 0x133/me=umh/subme=7/psy=1/psy_rd=1.00: 0.00/mixed_ref=1/me_range=16/chroma_me=1/trellis=1/8x8dct=1/cqm=0/deadzone=21, 11/fast_pskip=1/chroma_qp_offset=-2/threads=3/sliced_threads=0/nr=0/decimate=1/interlaced=0/constrained_intra=0/bframes=3/b_pyramid=0/b_adapt=1/b_bias=0/direct=1/weightb=1/open_gop=0/weightp=2/keyint=250/keyint_min=23/scenecut=40/intra_refresh=0/rc_lookahead=40/rc=2pass/mbtree=1/bitrate=1734/ratetol=1.0/qcomp=0.60/qpmin=10/qpmax=51/qpstep=4/cplxblur=20.0/qblur=0.5/ip_ratio=1.40/aq=1: 1.00
    Default : Yes
    Forced : No
    Audio #1
    ID : 2
    Format : AC-3
    Format/Info : Audio Coding 3
    Codec ID : A_AC3
    Duration : 1 h 23 min
    Bit rate mode : Constant
    Bit rate : 192 kb/s
    Channel(s) : 2 channels
    Channel positions : Front: L R
    Sampling rate : 44.1 kHz
    Frame rate : 28.711 FPS (1536 SPF)
    Bit depth : 16 bits
    Compression mode : Lossy
    Stream size : 114 MiB (9%)
    Title : AniDub (MVO)
    Language : Russian
    Service kind : Complete Main
    Default : Yes
    Forced : Yes
    Audio #2
    ID : 3
    Format : AC-3
    Format/Info : Audio Coding 3
    Codec ID : A_AC3
    Duration : 1 h 22 min
    Bit rate mode : Constant
    Bit rate : 192 kb/s
    Channel(s) : 2 channels
    Channel positions : Front: L R
    Sampling rate : 48.0 kHz
    Frame rate : 31.250 FPS (1536 SPF)
    Bit depth : 16 bits
    Compression mode : Lossy
    Stream size : 113 MiB (9%)
    Title : Original
    Language : Chinese
    Service kind : Complete Main
    Default : No
    Forced : No
    Text
    ID : 4
    Format : UTF-8
    Codec ID : S_TEXT/UTF8
    Codec ID/Info : UTF-8 Plain Text
    Duration : 1 h 16 min
    Bit rate : 47 b/s
    Count of elements : 1217
    Stream size : 27.0 KiB (0%)
    Title : English
    Language : English
    Default : No
    Forced : No

    Скриншоты для ознакомления



    Все одноименные релизы в Клубе
    Время раздачи: с 12: 00 до 20: 00 (Москва) (до появления первых 3-5 скачавших)


    Онлайн видео Седьмой 2



    Седьмой 2/Си Джей 7 - 2/Cheung Gong 7 hou: Oi dei kau/CJ7 - 2 (2010) HDRip [H.264]
    Рейтинг →
     (голосов: 1, оценка 5/5, голосовать можно 1 раз )

    Другие торренты по теме:

  • Седьмой сын / Seventh Son (2014) WEBRip [1080р] [Трейлер]
  • Седьмой сын / Seventh Son (2014) CamRip [Proper]
  • VA - Опасные Связи. Седьмой выпуск. (2015) [MP3|256 кб / с]<Шансон>скачать через торрент бесплатно
  • Старый Приятель - Девяносто седьмой (2015) [MP3|320 кб / с]<Rock> скачать через торрент бесплатно
  • Седьмой сын / Seventh Son (2014) WEBHDRip [576p] iPad [Line] скачать через торрент бесплатно
  • Седьмой сын / Seventh Son (2014) WEBRip [1080p] ATV [Line] скачать через торрент бесплатно
  • Седьмой сын / Seventh Son (2014) WEBRip [H.264 / 720p-LQ] ATV [Line] скачать через торрент бесплатно
  • Седьмой сын / Seventh Son (2014) WEB-DLRip [H.264 / 720p-LQ] скачать через торрент бесплатно


    • Комментарии (0):

      Информация

      Информация

        Посетители, находящиеся в группе Гости, не могут оставлять комментарии в данной новости.

        ↓ Меню




        ↓ Опрос

        Вы добавили сайт в закладки?
        Да
        Нет


        Top 10 за месяц (Мультфильмы)