.
Авторизация | Регистрация
Хочешь лучшие торренты? Добавь свой email!
Добавить

Торрент скачать бесплатно

» » Mahouka Koukou no Rettousei Movie: Hoshi wo Yobu Shoujo | Непутевый ученик в школе магии: Взывающая к звёздам [2017, Movie] BDRip 1080p rus торрент скачать бесплатно


    Mahouka Koukou no Rettousei Movie: Hoshi wo Yobu Shoujo | Непутевый ученик в школе магии: Взывающая к звёздам [2017, Movie] BDRip 1080p rus торрент скачать бесплатно

    Опубликовал: Админ | Дата: 19-03-2018, 05:00 | .torrent скачали: 2

    Mahouka Koukou no Rettousei Movie: Hoshi wo Yobu Shoujo | Непутевый ученик в школе магии: Взывающая к звёздам [2017, Movie] BDRip 1080p rusТип: Полнометражный фильм
    Жанр: Приключения, фантастика, школа
    Продолжительность: 90 мин.
    Дата выпуска: 17 Июня 2017
    Производство: Япония/8-Bit
    Автор оригинала: Цутому Сато
    Режиссер: Рисако Ёсида
    Альтернативные названия: Посредственность из школы магов: Взывающая к звёздам
    Озвучка: AniDub - RiZZ_fisher, Bars MacAdams, Oriko, Trina_D
    Ссылки: MyAnimeList

    Описание

    События фильма расскажут о весенних каникулах после первого года обучения Тацуи и Миюки. Они направляются к вилле на острове архипелага Огасавара. Вскоре они встречают молодую девушку Кокоа, которая покинула Военно-морскую базу. Кокоа рассказывает Тацуе о своем желании...
    Качество видео: BDRip
    Видео : AVC/H.264, 1920x1080, 23, 976 fps, ~4648Kbps, 0.093 bit/pixel
    Аудио: AAC 2.0, 48KHz, 192 Kbps, LC
    Язык озвучки: Русский
    Субтитры: Отсутствуют

    Скриншоты для ознакомления










    Общее
    Уникальный идентификатор : 242312168061961158019739311189669323406 (0xB64BA043E5113831A246A8A7A2E2228E)
    Полное имя : D: ЗагрузкиНепутевый ученик в школе магии Взывающая к звёзда - Gekijouban Mahouka Koukou no Rettousei Hoshi o Yobu Shoujo BDRip 1920x1080 x264 Aac MOVIE.mkv
    Формат : Matroska
    Версия формата : Version 4/Version 2
    Размер файла : 3, 04 Гбайт
    Продолжительность : 1 ч. 29 м.
    Общий поток : 4842 Кбит/сек
    Дата кодирования : UTC 2018-03-16 18: 52: 00
    Программа кодирования : mkvmerge v9.2.0 (\'Photograph\') 64bit
    Библиотека кодирования : libebml v1.3.3 + libmatroska v1.4.4
    Видео
    Идентификатор : 1
    Формат : AVC
    Формат/Информация : Advanced Video Codec
    Профиль формата : Main@L4.1
    Настройки формата : CABAC/4 Ref Frames
    Параметр CABAC формата : Да
    Параметр RefFrames формата : 4 кадра
    Идентификатор кодека : V_MPEG4/ISO/AVC
    Продолжительность : 1 ч. 29 м.
    Битрейт : 4648 Кбит/сек
    Ширина : 1920 пикселей
    Высота : 1080 пикселей
    Соотношение сторон : 16: 9
    Режим частоты кадров : Постоянный
    Частота кадров : 23, 976 (24000/1001) кадра/сек
    Цветовое пространство : YUV
    Субдискретизация насыщенности : 4: 2: 0
    Битовая глубина : 8 бит
    Тип развёртки : Прогрессивная
    Бит/(Пиксели*Кадры) : 0.093
    Размер потока : 2, 92 Гбайт (96%)
    Библиотека кодирования : x264 core 155 r2867+74 66b5600 t_mod_Custom_2 8-bit@all X86_64
    Настройки программы : cabac=1/ref=3/deblock=1: 0: 0/analyse=0x1: 0x131/me=umh/subme=9/psy=1/fade_compensate=0.00/psy_rd=1.00: 0.00/mixed_ref=1/me_range=32/chroma_me=1/trellis=1/8x8dct=0/cqm=0/deadzone=21, 11/fast_pskip=1/chroma_qp_offset=-2/threads=18/lookahead_threads=1/sliced_threads=0/nr=0/decimate=1/interlaced=0/bluray_compat=0/constrained_intra=0/fgo=0/bframes=3/b_pyramid=2/b_adapt=1/b_bias=0/direct=1/weightb=1/open_gop=0/weightp=2/keyint=240/keyint_min=1/scenecut=40/intra_refresh=0/rc_lookahead=40/rc=crf/mbtree=1/crf=18.0000/qcomp=0.60/qpmin=0: 0: 0/qpmax=69: 69: 69/qpstep=4/ip_ratio=1.40/aq=1: 1.00/aq-sensitivity=10.00/aq-factor=1.00: 1.00: 1.00/aq2=0/aq3=0
    Default : Да
    Forced : Нет
    Аудио
    Идентификатор : 2
    Формат : AAC
    Формат/Информация : Advanced Audio Codec
    Профиль формата : LC
    Идентификатор кодека : A_AAC-2
    Продолжительность : 1 ч. 29 м.
    Битрейт : 192 Кбит/сек
    Каналы : 2 канала
    Расположение каналов : Front: L R
    Частота : 48, 0 КГц
    Частота кадров : 46, 875 кадров/сек (1024 SPF)
    Метод сжатия : С потерями
    Размер потока : 124 Мбайт (4%)
    Язык : English
    Default : Да
    Forced : Нет
    Время раздачи: С 12: 00 до 23: 00 и до 5 скачиваний (до появления первых 3-5 скачавших)


    Онлайн видео Mahouka Koukou no Rettousei Movie: Hoshi wo Yobu Shoujo



    Mahouka Koukou no Rettousei Movie: Hoshi wo Yobu Shoujo | Непутевый ученик в школе магии: Взывающая к звёздам [2017, Movie] BDRip 1080p rus
    Рейтинг →
     (голосов: 1, оценка 5/5, голосовать можно 1 раз )

    Другие торренты по теме:

  • Mahouka Koukou no Rettousei / Mahouka / The Irregular at Magic High School / Посредственность из школы магов [2014, TV, 25 из 26] WEBRip 720p Raw+Rus
  • Mahouka Koukou no Rettousei / Mahouka / The Irregular at Magic High School / Бездарный ученик старшей школы магии [2014, TV, 2 из 26] BDrip 1080p Hi10p raw скачать через торрент бесплатно
  • Mahouka Koukou no Rettousei / The Irregular at Magic High School / Бездарь в старшей школе магии [2014, TV, 25 из 26 + 4 из 5 ONA] HDTV 720p Raw
  • Mahouka koukou no Rettousei / The Irregular at Magic High School / Непутевый ученик в школе магии (2011) [14 томов] [Ранобэ] [Русский] [incomplete] скачать через торрент бесплатно
  • Mahouka Koukou no Rettousei Movie: Hoshi wo Yobu Shoujo | Непутевый ученик в школе магии: Взывающая к звёздам [2017, Movie] BDRip 720p rus


    • Комментарии (0):

      Информация

      Информация

        Посетители, находящиеся в группе Гости, не могут оставлять комментарии в данной новости.

        ↓ Меню




        ↓ Опрос

        Вы добавили сайт в закладки?
        Да
        Нет


        Top 10 за месяц (Мультфильмы)