.
Авторизация | Регистрация
Хочешь лучшие торренты? Добавь свой email!
Добавить

Торрент скачать бесплатно

  • support: webmaster@btracker.org
» » Белые росы (1983) WEBRip [H.264] [MP4|1430х1080] торрент скачать бесплатно


    Белые росы (1983) WEBRip [H.264] [MP4|1430х1080] торрент скачать бесплатно

    Опубликовал: Админ | Дата: 13-06-2018, 05:00 | .torrent скачали: 0

    Белые росы (1983) WEBRip [H.264] [MP4|1430х1080]Производство: СССР/Беларусьфильм
    Жанр: Комедия
    Режиссер: Игорь Добролюбов
    Актеры: Всеволод Санаев, Николай Караченцов, Михаил Кокшенов, Геннадий Гарбук, Борис Новиков, Галина Польских, Наталья Хорохорина, Станислав Садальский, Стефания Станюта, Александр Беспалый

    Описание

    Ветеран труда и трех войн, уважаемый человек в деревне Белые росы — Федор Ходас уже давно овдовел и имеет трех взрослых сыновей. Старший чрезмерно расчетлив, младший чересчур весел. Средний уехал на Курилы и каков он теперь отцу неведомо. Но за всех у старика душа болит, особенно за младшего балагура…

    Возраст: 12+ (зрителям, достигшим 12 лет)
    Продолжительность: 01: 23: 35
    Качество видео: WEBRip
    Субтитры: Отсутствуют
    Видео: AVC/H.264, 1430х1080 (4: 3), ~2140 Kbps
    Аудио: AAC, 2 ch, 126 Kbps

    Общее
    Полное имя : G: Белые росы (1983).by.Алехаndr.mp4
    Формат : MPEG-4
    Профиль формата : Base Media
    Идентификатор кодека : isom (isom/iso2/avc1/mp41)
    Размер файла : 1, 33 Гбайт
    Продолжительность : 1 ч. 23 м.
    Общий поток : 2274 Кбит/сек
    Программа кодирования : Lavf56.40.101
    Видео
    Идентификатор : 1
    Формат : AVC
    Формат/Информация : Advanced Video Codec
    Профиль формата : High@L4
    Настройки формата : CABAC/2 Ref Frames
    Параметр CABAC формата : Да
    Параметр RefFrames формата : 2 кадра
    Идентификатор кодека : avc1
    Идентификатор кодека/Информация : Advanced Video Coding
    Продолжительность : 1 ч. 23 м.
    Duration_FirstFrame : -40 мс.
    Битрейт : 2142 Кбит/сек
    Ширина : 1430 пикселей
    Высота : 1080 пикселей
    Соотношение сторон : 4: 3
    Режим частоты кадров : Переменный
    Частота кадров : 25, 000 кадров/сек
    Минимальная частота кадров : 25, 000 кадров/сек
    Максимальная частота кадров : 25, 014 кадров/сек
    Цветовое пространство : YUV
    Субдискретизация насыщенности : 4: 2: 0
    Битовая глубина : 8 бит
    Тип развёртки : Прогрессивная
    Бит/(Пиксели*Кадры) : 0.055
    Размер потока : 1, 25 Гбайт (94%)
    Цветовой диапазон : Limited
    Основные цвета : BT.709
    Характеристики трансфера : BT.709
    Коэффициенты матрицы : BT.709
    Аудио
    Идентификатор : 2
    Формат : AAC
    Формат/Информация : Advanced Audio Codec
    Профиль формата : LC
    Идентификатор кодека : mp4a-40-2
    Продолжительность : 1 ч. 23 м.
    Вид битрейта : Постоянный
    Битрейт : 126 Кбит/сек
    Каналы : 2 канала
    Расположение каналов : Front: L R
    Частота : 44, 1 КГц
    Частота кадров : 43, 066 кадра/сек (1024 SPF)
    Метод сжатия : С потерями
    Размер потока : 75, 1 Мбайт (6%)
    Default : Да
    AlternateGroup/String : 1
    Скриншоты:


    Все одноименные релизы в Клубе
    Время раздачи: 24/7 (круглосуточно) (до появления первых 3-5 скачавших)


    Белые росы (1983) WEBRip [H.264] [MP4|1430х1080]
    Рейтинг →
     (голосов: 1, оценка 4/5, голосовать можно 1 раз )

    Другие торренты по теме:

  • Белые росы (1983) HDTVRip [H.264] скачать через торрент бесплатно
  • Белые росы (1983) HDTVRip [H.264 / 1080i] скачать через торрент бесплатно
  • Белые росы. Возвращение (2014) TVRip скачать через торрент бесплатно
  • Белые росы (1983) HDTVRip [H.264 / 720p-LQ]
  • Белые росы. Возвращение (2014) SATRip


    • Комментарии (0):

      Информация

      Информация

        Посетители, находящиеся в группе Гости, не могут оставлять комментарии в данной новости.

        ↓ Меню




        ↓ Опрос

        Вы добавили сайт в закладки?
        Да
        Нет


        Top 10 за месяц (КПК и мобильные)