.
Авторизация | Регистрация
Хочешь лучшие торренты? Добавь свой email!
Добавить

Торрент скачать бесплатно

  • support: webmaster@btracker.org
» » Чёрная Пантера / Black Panther (2018) BDRip [H.264] [MP4|1280x536] торрент скачать бесплатно


    Чёрная Пантера / Black Panther (2018) BDRip [H.264] [MP4|1280x536] торрент скачать бесплатно

    Опубликовал: Админ | Дата: 1-06-2018, 05:00 | .torrent скачали: 0

    Чёрная Пантера / Black Panther (2018) BDRip [H.264] [MP4|1280x536]Производство: США/Marvel Studios Inc., Walt Disney Pictures.
    Жанр: Фантастика, Боевик, Приключения
    Режиссер: Райан Куглер
    Актеры: Чэдвик Боузмэн, Майкл Б. Джордан, Лупита Нионго, Данай Джекесай Гурира, Мартин Фриман, Дэниэл Калуя, Летишиа Райт, Уинстон Дьюк, Стерлинг К. Браун, Анджела Бассетт

    Описание

    С первого взгляда можно решить, что Ваканда — обычная территория дикой Африки, но это не так. Здесь, в недрах пустынных земель, скрываются залежи уникального металла, способного поглощать вибрацию. Многие пытались добраться до него, разоряя всё на своём пути и принося смерть аборигенам, но каждый раз таинственный дух саванны — Чёрная Пантера — вставал на защиту угнетённых.
    Спустя много лет беда снова приходит в Ваканду, и в этот раз враг заручился поддержкой современных технологий. Когда шансов почти не остаётся, Т`Чалла, молодой принц Ваканды, узнаёт, что именно ему предстоит возродить легенду и продолжить вечную борьбу, надев маску Чёрной Пантеры.

    Возраст: 16+ (зрителям, достигшим 16 лет)
    Рейтинг MPAA: PG-13 (детям до 13 лет просмотр нежелателен)
    Дата мировой премьеры: 29.01.2018
    Дата российской премьеры: 26.02.2018, WDSSPR 3D
    Продолжительность: 02: 14: 33
    Качество видео: BDRip 720p
    Перевод: Дублированный (Лицензия)
    Субтитры: Русские, английские (forced)
    Видео: AVC/H.264, 1280x536, ~3600 Kbps
    Аудио #1: AAC, 2 ch, 132 Kbps - Русский (Лицензия)
    Аудио #2: AAC, 2 ch, 132 Kbps - Английский

    General
    Complete name : Black.Panther.2018.M.RU.EN.HQ.BDRip.720p.MIXTV.mp4
    Format : MPEG-4
    Format profile : Base Media
    Codec ID : isom (isom/iso2/avc1/mp41)
    File size : 3.64 GiB
    Duration : 2 h 14 min
    Overall bit rate mode : Variable
    Overall bit rate : 3 872 kb/s
    Movie name : Black.Panther.2018.RU.EN.HQ.BDRip.720p from MIXTV
    Writing application : Lavf57.83.100
    Video
    ID : 1
    Format : AVC
    Format/Info : Advanced Video Codec
    Format profile : High@L4.1
    Format settings : CABAC/9 Ref Frames
    Format settings, CABAC : Yes
    Format settings, ReFrames : 9 frames
    Codec ID : avc1
    Codec ID/Info : Advanced Video Coding
    Duration : 2 h 14 min
    Bit rate : 3 600 kb/s
    Width : 1 280 pixels
    Height : 536 pixels
    Display aspect ratio : 2.40: 1
    Frame rate mode : Variable
    Frame rate : 23.976 (24000/1001) FPS
    Minimum frame rate : 23.564 FPS
    Maximum frame rate : 24.390 FPS
    Color space : YUV
    Chroma subsampling : 4: 2: 0
    Bit depth : 8 bits
    Scan type : Progressive
    Bits/(Pixel*Frame) : 0.219
    Stream size : 3.38 GiB (93%)
    Title : Black.Panther.2018
    Writing library : x264 core 155 r2893 b00bcaf
    Encoding settings : cabac=1/ref=9/deblock=1: -1: -1/analyse=0x3: 0x113/me=umh/subme=9/psy=1/psy_rd=1.00: 0.15/mixed_ref=1/me_range=24/chroma_me=1/trellis=1/8x8dct=1/cqm=0/deadzone=21, 11/fast_pskip=1/chroma_qp_offset=-3/threads=6/lookahead_threads=1/sliced_threads=0/nr=0/decimate=1/interlaced=0/bluray_compat=0/constrained_intra=0/bframes=7/b_pyramid=2/b_adapt=2/b_bias=0/direct=1/weightb=1/open_gop=0/weightp=2/keyint=240/keyint_min=24/scenecut=40/intra_refresh=0/rc_lookahead=30/rc=2pass/mbtree=1/bitrate=3600/ratetol=1.0/qcomp=0.60/qpmin=0/qpmax=69/qpstep=4/cplxblur=20.0/qblur=0.5/vbv_maxrate=62500/vbv_bufsize=78125/nal_hrd=none/filler=0/ip_ratio=1.40/aq=1: 1.00
    Language : English
    Color range : Limited
    Color primaries : BT.709
    Transfer characteristics : BT.709
    Matrix coefficients : BT.709
    Audio #1
    ID : 2
    Format : AAC
    Format/Info : Advanced Audio Codec
    Format profile : LC
    Codec ID : mp4a-40-2
    Duration : 2 h 14 min
    Bit rate mode : Constant
    Bit rate : 132 kb/s
    Channel(s) : 2 channels
    Channel positions : Front: L R
    Sampling rate : 48.0 kHz
    Frame rate : 46.875 FPS (1024 SPF)
    Compression mode : Lossy
    Stream size : 125 MiB (3%)
    Title : Dub License
    Language : Russian
    Default : Yes
    Alternate group : 1
    Audio #2
    ID : 3
    Format : AAC
    Format/Info : Advanced Audio Codec
    Format profile : LC
    Codec ID : mp4a-40-2
    Duration : 2 h 14 min
    Bit rate mode : Constant
    Bit rate : 132 kb/s
    Channel(s) : 2 channels
    Channel positions : Front: L R
    Sampling rate : 48.0 kHz
    Frame rate : 46.875 FPS (1024 SPF)
    Compression mode : Lossy
    Stream size : 126 MiB (3%)
    Title : Original
    Language : English
    Default : No
    Alternate group : 1
    Text #1
    ID : 4
    Format : Timed Text
    Muxing mode : sbtl
    Codec ID : tx3g
    Duration : 2 h 13 min
    Bit rate mode : Variable
    Bit rate : 2 b/s
    Stream size : 2.38 KiB (0%)
    Title : Forced
    Language : Russian
    Default : Yes
    Forced : No
    Alternate group : 3
    Text #2
    ID : 5
    Format : Timed Text
    Muxing mode : sbtl
    Codec ID : tx3g
    Duration : 2 h 13 min
    Bit rate mode : Variable
    Bit rate : 1 b/s
    Stream size : 1.40 KiB (0%)
    Title : Forced
    Language : English
    Default : No
    Forced : No
    Alternate group : 3
    Скриншоты:


    Все одноименные релизы в Клубе
    Время раздачи: 24/7 (круглосуточно) (до появления первых 3-5 скачавших)


    Чёрная Пантера/Black Panther (2018) BDRip [H.264] [MP4|1280x536]
    Рейтинг →
     (голосов: 1, оценка 5/5, голосовать можно 1 раз )

    Другие торренты по теме:

  • Чёрная Пантера / Black Panther (2018) TS [H.264 / 720p-LQ] [MVO, AD]
  • Ludwig Goransson - Black Panther / Чёрная пантера (Original Motion Picture Soundtrack) (2018) [FLAC|Lossless|tracks]<Soundtrack>
  • Ludwig Goransson - Чёрная пантера / Black Panther (Original Motion Picture Soundtrack) (2018) [MP3|320 Kbps] <Soundtrack>
  • Чёрная Пантера / Black Panther (2018) BDRip [H.264 / 1080p] [MVO] [PR, AD]
  • Чёрная Пантера / Black Panther (2018) BDRip [H.264 / 1080p] [EN / EN Sub] [PR]
  • Чёрная Пантера / Black Panther (2018) BDRemux [H.264 / 1080p] [EN / EN, Fr, Sp Sub]
  • Чёрная Пантера / Black Panther (2018) BDRip [H.265 / 1080p-LQ] [UKR, EN / RU, EN Sub]
  • Чёрная Пантера / Black Panther (2018) HDRip [UKR, ENG]


    • Комментарии (0):

      Информация

      Информация

        Посетители, находящиеся в группе Гости, не могут оставлять комментарии в данной новости.

        ↓ Меню




        ↓ Опрос

        Вы добавили сайт в закладки?
        Да
        Нет


        Top 10 за месяц (КПК и мобильные)