.
Авторизация | Регистрация
Хочешь лучшие торренты? Добавь свой email!
Добавить

Торрент скачать бесплатно

  • support: webmaster@btracker.org
» » Иди и смотри (1985) WEB-DLRip [H.264] [MP4|1480х1080] торрент скачать бесплатно


    Иди и смотри (1985) WEB-DLRip [H.264] [MP4|1480х1080] торрент скачать бесплатно

    Опубликовал: Админ | Дата: 31-05-2018, 05:00 | .torrent скачали: 1

    Иди и смотри (1985) WEB-DLRip [H.264] [MP4|1480х1080]Производство: СССР
    Жанр: Драма, военный
    Режиссер: Элем Климов
    Актеры: Алексей Кравченко, Ольга Миронова, Любомирас Лауцявичюс, Владас Багдонас, Юри Лумисте, Виктор Лоренц, Казимир Рабецкий, Евгений Тиличеев, Александр Берда

    Описание

    Фильм снят по мотивам произведений Алеся Адамовича Хатынская повесть, Партизаны и Каратели.
    Картина основана на документальных фактах и обращается к Хатынской повести Адамовича. Авторами выбрано именно то место и те события, которые стали символом народной беды и страдания. Флера — шестнадцатилетний мальчишка, откопавший среди обрывков колючей проволоки, ржавых пулеметных лент и простреленных касок карабин, и отправившийся в лес к партизанам. В начале фильма он совсем ребенок. В конце, пройдя через ужас карательной акции фашистов, становится взрослым, пугающе взрослым и даже — старым. Война исказила когда-то нежные, детские черты и превратила их в старческие морщины.

    Возраст: 16+ (зрителям, достигшим 16 лет)
    Релиз от: Алехаndr
    Продолжительность: 02: 16: 59
    Качество видео: WEB-DLRip
    Субтитры: Отсутствуют
    Видео: AVC/H.264, 1480х1080, ~2665 Kbps
    Аудио: AAC, 2 ch, 178 Kbps

    Общее
    Полное имя : D: Иди и смотри (1985).by.Алехаndr.mp4
    Формат : MPEG-4
    Профиль формата : Base Media
    Идентификатор кодека : isom (isom/iso2/avc1/mp41)
    Размер файла : 2, 73 Гбайт
    Продолжительность : 2 ч. 16 м.
    Режим общего битрейта : Переменный
    Общий поток : 2849 Кбит/сек
    Дата кодирования : UTC 2018-05-30 10: 33: 42
    Дата пометки : UTC 2018-05-30 10: 33: 42
    Программа кодирования : Lavf57.71.100
    Видео
    Идентификатор : 1
    Формат : AVC
    Формат/Информация : Advanced Video Codec
    Профиль формата : Main@L4
    Настройки формата : CABAC/1 Ref Frames
    Параметр CABAC формата : Да
    Параметр RefFrames формата : 1 кадр
    Параметр GOP формата : M=1, N=25
    Идентификатор кодека : avc1
    Идентификатор кодека/Информация : Advanced Video Coding
    Продолжительность : 2 ч. 16 м.
    Битрейт : 2667 Кбит/сек
    Ширина : 1480 пикселей
    Высота : 1080 пикселей
    Соотношение сторон : 1, 370
    Режим частоты кадров : Постоянный
    Частота кадров : 25, 000 кадров/сек
    Цветовое пространство : YUV
    Субдискретизация насыщенности : 4: 2: 0
    Битовая глубина : 8 бит
    Тип развёртки : Прогрессивная
    Бит/(Пиксели*Кадры) : 0.067
    Размер потока : 2, 55 Гбайт (94%)
    Дата кодирования : UTC 2018-05-30 10: 33: 42
    Дата пометки : UTC 2018-05-30 10: 33: 42
    Аудио
    Идентификатор : 2
    Формат : AAC
    Формат/Информация : Advanced Audio Codec
    Профиль формата : LC
    Идентификатор кодека : mp4a-40-2
    Продолжительность : 2 ч. 16 м.
    Вид битрейта : Переменный
    Битрейт : 178 Кбит/сек
    Максимальный битрейт : 192 Кбит/сек
    Каналы : 2 канала
    Расположение каналов : Front: L R
    Частота : 44, 1 КГц
    Частота кадров : 43, 066 кадра/сек (1024 SPF)
    Метод сжатия : С потерями
    Размер потока : 174 Мбайт (6%)
    Default : Да
    AlternateGroup/String : 1
    Дата кодирования : UTC 2018-05-30 10: 33: 42
    Дата пометки : UTC 2018-05-30 10: 33: 42
    Скриншоты:


    Все одноименные релизы в Клубе
    Время раздачи: 24/7 (круглосуточно) (до появления первых 3-5 скачавших)


    Иди и смотри (1985) WEB-DLRip [H.264] [MP4|1480х1080]
    Рейтинг →
     (голосов: 1, оценка 5/5, голосовать можно 1 раз )

    Другие торренты по теме:

  • П. В. Маковецкий | Смотри в корень! (1966) [DJVU]
  • Иди и смотри (1985) DVDRip [H.264] скачать через торрент бесплатно
  • Иди и смотри (1985) 2*DVD9 скачать через торрент бесплатно
  • Николай Антонов | Большой мир Нюры маленькой. Смотри прямо в лицо (1967) [PDF, DJVU] скачать через торрент бесплатно
  • Роб Найт | Смотри, что у тебя внутри. Как микробы, живущие в нашем теле, определяют наше здоровье и нашу личность (2016) [FB2]
  • А теперь не смотри / Dont Look Now (1973) BDRemux [H.264 / 1080p]
  • Евгений Мирошниченко | Смотри и учись! (2016) [PDF]
  • Джон Шерман | Смотри на себя (2014) [MP3]


    • Комментарии (0):

      Информация

      Информация

        Посетители, находящиеся в группе Гости, не могут оставлять комментарии в данной новости.

        ↓ Меню




        ↓ Опрос

        Вы добавили сайт в закладки?
        Да
        Нет


        Top 10 за месяц (КПК и мобильные)