.
Авторизация | Регистрация
Хочешь лучшие торренты? Добавь свой email!
Добавить

Торрент скачать бесплатно

  • support: webmaster@btracker.org
» » Тихое место / A Quiet Place (2018) WEBRip [H.264] [MP4|1280x720] [VO] торрент скачать бесплатно


    Тихое место / A Quiet Place (2018) WEBRip [H.264] [MP4|1280x720] [VO] торрент скачать бесплатно

    Опубликовал: Админ | Дата: 31-05-2018, 05:00 | .torrent скачали: 1

    Тихое место / A Quiet Place (2018) WEBRip [H.264] [MP4|1280x720] [VO]Производство: США/Platinum Dunes
    Жанр: Драма, Ужасы, Фантастика
    Режиссер: Джон Красински
    Актеры: Эмили Блант, Джон Красински, Ноа Джуп, Милли Симмондс, Леон Рассом, Кейд Вудворд, Дорис МакКарти

    Описание

    История одной семьи, которая проживает в небольшой уединённой ферме в далёкой американской глубинке. У главных героев есть двое детей. Казалось бы, жизнь этих людей совершенно не отличается от жизни других таких семей. Но главные герои живут в доме, который наполнен ужасными монстрами, реагирующими на любой звук. Герои разучили целый комплекс специальных жестов, которые помогают им общаться друг с другом, не издавая ни единого звука. Кроме того, каждый из членов семьи должен очень тихо передвигаться по всей территории дома, чтобы опасные существа не заметили их. Однако дом, где живут маленькие дети, не может быть самым тихим местом на земле.

    Возраст: 16+ (зрителям, достигшим 16 лет)
    Дата мировой премьеры: 9 марта 2018
    Дата премьеры в России: 12 апреля 2018

    Продолжительность: 01: 30: 21
    Качество видео: WEBRip 720p
    Перевод: Любительский (одноголосый, закадровый) Александр Волт
    Субтитры: корейские (неотключаемые)
    Видео: AVC/H.264, 1280x720, ~3000 Kbps
    Аудио 1: AAC, 2 ch, VBR 200 Kbps (Русский)
    Аудио 2: AAC, 2 ch, CBR 192 Kbps (Английский)

    Полное имя : F: ВидеоA Quiet Place.2018.WEB-720p.mp4
    Формат : MPEG-4
    Профиль формата : Base Media
    Идентификатор кодека : isom (isom/avc1)
    Размер файла : 2, 14 Гбайт
    Продолжительность : 1 ч. 30 м.
    Режим общего битрейта : Переменный
    Общий поток : 3395 Кбит/сек
    Название фильма : A Quiet Place 2018
    Тип содержимого : Short Film
    Дата кодирования : UTC 2018-05-29 10: 37: 40
    Дата пометки : UTC 2018-05-29 10: 39: 03
    Программа кодирования : MkvToMp4 www.mkvtomp4.ru version: 0.224 (x64)
    HDVideo : Yes
    Видео
    Идентификатор : 1
    Формат : AVC
    Формат/Информация : Advanced Video Codec
    Профиль формата : High@L3
    Настройки формата : CABAC/3 Ref Frames
    Параметр CABAC формата : Да
    Параметр RefFrames формата : 3 кадра
    Параметр GOP формата : M=4, N=15
    Идентификатор кодека : avc1
    Идентификатор кодека/Информация : Advanced Video Coding
    Продолжительность : 1 ч. 30 м.
    Вид битрейта : Переменный
    Битрейт : 3000 Кбит/сек
    Ширина : 1280 пикселей
    Высота : 720 пикселей
    Соотношение сторон : 16: 9
    Режим частоты кадров : Постоянный
    Частота кадров : 29, 970 (30000/1001) кадров/сек
    Стандарт вещания : NTSC
    Цветовое пространство : YUV
    Субдискретизация насыщенности : 4: 2: 0
    Битовая глубина : 8 бит
    Тип развёртки : Прогрессивная
    Бит/(Пиксели*Кадры) : 0.109
    Размер потока : 1, 89 Гбайт (88%)
    Язык : English
    Дата кодирования : UTC 2018-05-29 10: 37: 40
    Дата пометки : UTC 2018-05-29 10: 38: 18
    Цветовой диапазон : Limited
    Основные цвета : BT.709
    Характеристики трансфера : BT.709
    Коэффициенты матрицы : BT.709
    Аудио #1
    Идентификатор : 2
    Формат : AAC
    Формат/Информация : Advanced Audio Codec
    Профиль формата : LC
    Идентификатор кодека : mp4a-40-2
    Продолжительность : 1 ч. 30 м.
    Вид битрейта : Переменный
    Битрейт : 200 Кбит/сек
    Максимальный битрейт : 276 Кбит/сек
    Каналы : 2 канала
    Расположение каналов : Front: L R
    Частота : 48, 0 КГц
    Частота кадров : 46, 875 кадров/сек (1024 SPF)
    Метод сжатия : С потерями
    Размер потока : 129 Мбайт (6%)
    Язык : Russian
    Default : Да
    AlternateGroup/String : 1
    Дата кодирования : UTC 2018-05-29 10: 38: 13
    Дата пометки : UTC 2018-05-29 10: 38: 18
    Аудио #2
    Идентификатор : 3
    Формат : AAC
    Формат/Информация : Advanced Audio Codec
    Профиль формата : LC
    Идентификатор кодека : mp4a-40-2
    Продолжительность : 1 ч. 30 м.
    Вид битрейта : Постоянный
    Битрейт : 192 Кбит/сек
    Каналы : 2 канала
    Расположение каналов : Front: L R
    Частота : 48, 0 КГц
    Частота кадров : 46, 875 кадров/сек (1024 SPF)
    Метод сжатия : С потерями
    Размер потока : 124 Мбайт (6%)
    Язык : English
    Default : Нет
    AlternateGroup/String : 1
    Дата кодирования : UTC 2018-05-29 10: 38: 16
    Дата пометки : UTC 2018-05-29 10: 38: 18
    Скриншоты:


    Все одноименные релизы в Клубе
    Время раздачи: 24/7 (до появления первых 3-5 скачавших)


    Тихое место/A Quiet Place (2018) WEBRip [H.264] [MP4|1280x720] [VO]
    Рейтинг →
     (голосов: 1, оценка 5/5, голосовать можно 1 раз )

    Другие торренты по теме:

  • Тихое место / A Quiet Place (2018) TS [AD]
  • Тихое место / A Quiet Place (2018) WEBRip [H.264 / 1080p-LO] [MVO]
  • Тихое место / A Quiet Place (2018) WEBRip [MVO]


    • Комментарии (0):

      Информация

      Информация

        Посетители, находящиеся в группе Гости, не могут оставлять комментарии в данной новости.

        ↓ Меню




        ↓ Опрос

        Вы добавили сайт в закладки?
        Да
        Нет


        Top 10 за месяц (КПК и мобильные)